<?xml version="1.0" standalone="no"?>
  <!DOCTYPE svg PUBLIC "-//W3C//DTD SVG 1.1//EN" "http://www.w3.org/Graphics/SVG/1.1/DTD/svg11.dtd" >
  <svg>
  <metadata>
  Created by font-carrier
  </metadata>
  <defs>
  <font id="AGOptCyrillicNormal" horiz-adv-x="4325" vert-adv-y="4325" >
    <font-face
      
      font-family="AGOptCyrillic"
      
      font-weight="400"
      
      font-stretch="normal"
      
      units-per-em="4096"
      
      ascent="3064"
      
      descent="-1101"
      
    />
      <missing-glyph />

      

      
      <glyph glyph-name="uni7f" unicode="&#x7f;" d="M512 0L512 2560L2560 2560L2560 0L512 0M2496 64L2496 2496L576 2496L576 64L2496 64Z"  horiz-adv-x="3072" vert-adv-y="4096"  />

      
      <glyph glyph-name="uni80" unicode="&#x80;" d="M512 0L512 2560L2560 2560L2560 0L512 0M2496 64L2496 2496L576 2496L576 64L2496 64Z"  horiz-adv-x="3072" vert-adv-y="4096"  />

      
      <glyph glyph-name="uni81" unicode="&#x81;" d="M512 0L512 2560L2560 2560L2560 0L512 0M2496 64L2496 2496L576 2496L576 64L2496 64Z"  horiz-adv-x="3072" vert-adv-y="4096"  />

      
      <glyph glyph-name="uni82" unicode="&#x82;" d="M512 0L512 2560L2560 2560L2560 0L512 0M2496 64L2496 2496L576 2496L576 64L2496 64Z"  horiz-adv-x="3072" vert-adv-y="4096"  />

      
      <glyph glyph-name="uni83" unicode="&#x83;" d="M512 0L512 2560L2560 2560L2560 0L512 0M2496 64L2496 2496L576 2496L576 64L2496 64Z"  horiz-adv-x="3072" vert-adv-y="4096"  />

      
      <glyph glyph-name="uni84" unicode="&#x84;" d="M512 0L512 2560L2560 2560L2560 0L512 0M2496 64L2496 2496L576 2496L576 64L2496 64Z"  horiz-adv-x="3072" vert-adv-y="4096"  />

      
      <glyph glyph-name="uni85" unicode="&#x85;" d="M512 0L512 2560L2560 2560L2560 0L512 0M2496 64L2496 2496L576 2496L576 64L2496 64Z"  horiz-adv-x="3072" vert-adv-y="4096"  />

      
      <glyph glyph-name="uni86" unicode="&#x86;" d="M512 0L512 2560L2560 2560L2560 0L512 0M2496 64L2496 2496L576 2496L576 64L2496 64Z"  horiz-adv-x="3072" vert-adv-y="4096"  />

      
      <glyph glyph-name="uni87" unicode="&#x87;" d="M512 0L512 2560L2560 2560L2560 0L512 0M2496 64L2496 2496L576 2496L576 64L2496 64Z"  horiz-adv-x="3072" vert-adv-y="4096"  />

      
      <glyph glyph-name="uni88" unicode="&#x88;" d="M512 0L512 2560L2560 2560L2560 0L512 0M2496 64L2496 2496L576 2496L576 64L2496 64Z"  horiz-adv-x="3072" vert-adv-y="4096"  />

      
      <glyph glyph-name="uni89" unicode="&#x89;" d="M512 0L512 2560L2560 2560L2560 0L512 0M2496 64L2496 2496L576 2496L576 64L2496 64Z"  horiz-adv-x="3072" vert-adv-y="4096"  />

      
      <glyph glyph-name="uni8a" unicode="&#x8a;" d="M512 0L512 2560L2560 2560L2560 0L512 0M2496 64L2496 2496L576 2496L576 64L2496 64Z"  horiz-adv-x="3072" vert-adv-y="4096"  />

      
      <glyph glyph-name="uni8b" unicode="&#x8b;" d="M512 0L512 2560L2560 2560L2560 0L512 0M2496 64L2496 2496L576 2496L576 64L2496 64Z"  horiz-adv-x="3072" vert-adv-y="4096"  />

      
      <glyph glyph-name="uni8c" unicode="&#x8c;" d="M512 0L512 2560L2560 2560L2560 0L512 0M2496 64L2496 2496L576 2496L576 64L2496 64Z"  horiz-adv-x="3072" vert-adv-y="4096"  />

      
      <glyph glyph-name="uni8d" unicode="&#x8d;" d="M512 0L512 2560L2560 2560L2560 0L512 0M2496 64L2496 2496L576 2496L576 64L2496 64Z"  horiz-adv-x="3072" vert-adv-y="4096"  />

      
      <glyph glyph-name="uni8e" unicode="&#x8e;" d="M512 0L512 2560L2560 2560L2560 0L512 0M2496 64L2496 2496L576 2496L576 64L2496 64Z"  horiz-adv-x="3072" vert-adv-y="4096"  />

      
      <glyph glyph-name="uni8f" unicode="&#x8f;" d="M512 0L512 2560L2560 2560L2560 0L512 0M2496 64L2496 2496L576 2496L576 64L2496 64Z"  horiz-adv-x="3072" vert-adv-y="4096"  />

      
      <glyph glyph-name="uni91" unicode="&#x91;" d="M512 0L512 2560L2560 2560L2560 0L512 0M2496 64L2496 2496L576 2496L576 64L2496 64Z"  horiz-adv-x="3072" vert-adv-y="4096"  />

      
      <glyph glyph-name="uni92" unicode="&#x92;" d="M512 0L512 2560L2560 2560L2560 0L512 0M2496 64L2496 2496L576 2496L576 64L2496 64Z"  horiz-adv-x="3072" vert-adv-y="4096"  />

      
      <glyph glyph-name="uni93" unicode="&#x93;" d="M512 0L512 2560L2560 2560L2560 0L512 0M2496 64L2496 2496L576 2496L576 64L2496 64Z"  horiz-adv-x="3072" vert-adv-y="4096"  />

      
      <glyph glyph-name="uni94" unicode="&#x94;" d="M512 0L512 2560L2560 2560L2560 0L512 0M2496 64L2496 2496L576 2496L576 64L2496 64Z"  horiz-adv-x="3072" vert-adv-y="4096"  />

      
      <glyph glyph-name="uni95" unicode="&#x95;" d="M512 0L512 2560L2560 2560L2560 0L512 0M2496 64L2496 2496L576 2496L576 64L2496 64Z"  horiz-adv-x="3072" vert-adv-y="4096"  />

      
      <glyph glyph-name="uni96" unicode="&#x96;" d="M512 0L512 2560L2560 2560L2560 0L512 0M2496 64L2496 2496L576 2496L576 64L2496 64Z"  horiz-adv-x="3072" vert-adv-y="4096"  />

      
      <glyph glyph-name="uni97" unicode="&#x97;" d="M512 0L512 2560L2560 2560L2560 0L512 0M2496 64L2496 2496L576 2496L576 64L2496 64Z"  horiz-adv-x="3072" vert-adv-y="4096"  />

      
      <glyph glyph-name="uni98" unicode="&#x98;" d="M512 0L512 2560L2560 2560L2560 0L512 0M2496 64L2496 2496L576 2496L576 64L2496 64Z"  horiz-adv-x="3072" vert-adv-y="4096"  />

      
      <glyph glyph-name="uni99" unicode="&#x99;" d="M512 0L512 2560L2560 2560L2560 0L512 0M2496 64L2496 2496L576 2496L576 64L2496 64Z"  horiz-adv-x="3072" vert-adv-y="4096"  />

      
      <glyph glyph-name="uni9a" unicode="&#x9a;" d="M512 0L512 2560L2560 2560L2560 0L512 0M2496 64L2496 2496L576 2496L576 64L2496 64Z"  horiz-adv-x="3072" vert-adv-y="4096"  />

      
      <glyph glyph-name="uni9b" unicode="&#x9b;" d="M512 0L512 2560L2560 2560L2560 0L512 0M2496 64L2496 2496L576 2496L576 64L2496 64Z"  horiz-adv-x="3072" vert-adv-y="4096"  />

      
      <glyph glyph-name="uni9c" unicode="&#x9c;" d="M512 0L512 2560L2560 2560L2560 0L512 0M2496 64L2496 2496L576 2496L576 64L2496 64Z"  horiz-adv-x="3072" vert-adv-y="4096"  />

      
      <glyph glyph-name="uni9d" unicode="&#x9d;" d="M512 0L512 2560L2560 2560L2560 0L512 0M2496 64L2496 2496L576 2496L576 64L2496 64Z"  horiz-adv-x="3072" vert-adv-y="4096"  />

      
      <glyph glyph-name="uni9e" unicode="&#x9e;" d="M512 0L512 2560L2560 2560L2560 0L512 0M2496 64L2496 2496L576 2496L576 64L2496 64Z"  horiz-adv-x="3072" vert-adv-y="4096"  />

      
      <glyph glyph-name="uni9f" unicode="&#x9f;" d="M512 0L512 2560L2560 2560L2560 0L512 0M2496 64L2496 2496L576 2496L576 64L2496 64Z"  horiz-adv-x="3072" vert-adv-y="4096"  />

      
      <glyph glyph-name="unia1" unicode="&#xa1;" d="M512 0L512 2560L2560 2560L2560 0L512 0M2496 64L2496 2496L576 2496L576 64L2496 64Z"  horiz-adv-x="3072" vert-adv-y="4096"  />

      
      <glyph glyph-name="unia2" unicode="&#xa2;" d="M512 0L512 2560L2560 2560L2560 0L512 0M2496 64L2496 2496L576 2496L576 64L2496 64Z"  horiz-adv-x="3072" vert-adv-y="4096"  />

      
      <glyph glyph-name="unia3" unicode="&#xa3;" d="M512 0L512 2560L2560 2560L2560 0L512 0M2496 64L2496 2496L576 2496L576 64L2496 64Z"  horiz-adv-x="3072" vert-adv-y="4096"  />

      
      <glyph glyph-name="uniaa" unicode="&#xaa;" d="M512 0L512 2560L2560 2560L2560 0L512 0M2496 64L2496 2496L576 2496L576 64L2496 64Z"  horiz-adv-x="3072" vert-adv-y="4096"  />

      
      <glyph glyph-name="uniad" unicode="&#xad;" d="M512 0L512 2560L2560 2560L2560 0L512 0M2496 64L2496 2496L576 2496L576 64L2496 64Z"  horiz-adv-x="3072" vert-adv-y="4096"  />

      
      <glyph glyph-name="uniaf" unicode="&#xaf;" d="M512 0L512 2560L2560 2560L2560 0L512 0M2496 64L2496 2496L576 2496L576 64L2496 64Z"  horiz-adv-x="3072" vert-adv-y="4096"  />

      
      <glyph glyph-name="unib2" unicode="&#xb2;" d="M512 0L512 2560L2560 2560L2560 0L512 0M2496 64L2496 2496L576 2496L576 64L2496 64Z"  horiz-adv-x="3072" vert-adv-y="4096"  />

      
      <glyph glyph-name="unib3" unicode="&#xb3;" d="M512 0L512 2560L2560 2560L2560 0L512 0M2496 64L2496 2496L576 2496L576 64L2496 64Z"  horiz-adv-x="3072" vert-adv-y="4096"  />

      
      <glyph glyph-name="uniba" unicode="&#xba;" d="M512 0L512 2560L2560 2560L2560 0L512 0M2496 64L2496 2496L576 2496L576 64L2496 64Z"  horiz-adv-x="3072" vert-adv-y="4096"  />

      
      <glyph glyph-name="unibc" unicode="&#xbc;" d="M512 0L512 2560L2560 2560L2560 0L512 0M2496 64L2496 2496L576 2496L576 64L2496 64Z"  horiz-adv-x="3072" vert-adv-y="4096"  />

      
      <glyph glyph-name="unibd" unicode="&#xbd;" d="M512 0L512 2560L2560 2560L2560 0L512 0M2496 64L2496 2496L576 2496L576 64L2496 64Z"  horiz-adv-x="3072" vert-adv-y="4096"  />

      
      <glyph glyph-name="unibe" unicode="&#xbe;" d="M512 0L512 2560L2560 2560L2560 0L512 0M2496 64L2496 2496L576 2496L576 64L2496 64Z"  horiz-adv-x="3072" vert-adv-y="4096"  />

      
      <glyph glyph-name="unibf" unicode="&#xbf;" d="M512 0L512 2560L2560 2560L2560 0L512 0M2496 64L2496 2496L576 2496L576 64L2496 64Z"  horiz-adv-x="3072" vert-adv-y="4096"  />

      
      <glyph glyph-name="uni2015" unicode="&#x2015;" d="M512 0L512 2560L2560 2560L2560 0L512 0M2496 64L2496 2496L576 2496L576 64L2496 64Z"  horiz-adv-x="3072" vert-adv-y="4096"  />

      
      <glyph glyph-name="uni2016" unicode="&#x2016;" d="M512 0L512 2560L2560 2560L2560 0L512 0M2496 64L2496 2496L576 2496L576 64L2496 64Z"  horiz-adv-x="3072" vert-adv-y="4096"  />

      
      <glyph glyph-name="uni2017" unicode="&#x2017;" d="M512 0L512 2560L2560 2560L2560 0L512 0M2496 64L2496 2496L576 2496L576 64L2496 64Z"  horiz-adv-x="3072" vert-adv-y="4096"  />

      
      <glyph glyph-name="uni201A" unicode="&#x201A;" d="M512 0L512 2560L2560 2560L2560 0L512 0M2496 64L2496 2496L576 2496L576 64L2496 64Z"  horiz-adv-x="3072" vert-adv-y="4096"  />

      
      <glyph glyph-name="uni201B" unicode="&#x201B;" d="M512 0L512 2560L2560 2560L2560 0L512 0M2496 64L2496 2496L576 2496L576 64L2496 64Z"  horiz-adv-x="3072" vert-adv-y="4096"  />

      
      <glyph glyph-name="uni201E" unicode="&#x201E;" d="M512 0L512 2560L2560 2560L2560 0L512 0M2496 64L2496 2496L576 2496L576 64L2496 64Z"  horiz-adv-x="3072" vert-adv-y="4096"  />

      
      <glyph glyph-name="uni201F" unicode="&#x201F;" d="M512 0L512 2560L2560 2560L2560 0L512 0M2496 64L2496 2496L576 2496L576 64L2496 64Z"  horiz-adv-x="3072" vert-adv-y="4096"  />

      
      <glyph glyph-name="uni2021" unicode="&#x2021;" d="M512 0L512 2560L2560 2560L2560 0L512 0M2496 64L2496 2496L576 2496L576 64L2496 64Z"  horiz-adv-x="3072" vert-adv-y="4096"  />

      
      <glyph glyph-name="uni2022" unicode="&#x2022;" d="M512 0L512 2560L2560 2560L2560 0L512 0M2496 64L2496 2496L576 2496L576 64L2496 64Z"  horiz-adv-x="3072" vert-adv-y="4096"  />

      
      <glyph glyph-name="uni2023" unicode="&#x2023;" d="M512 0L512 2560L2560 2560L2560 0L512 0M2496 64L2496 2496L576 2496L576 64L2496 64Z"  horiz-adv-x="3072" vert-adv-y="4096"  />

      
      <glyph glyph-name="uni2024" unicode="&#x2024;" d="M512 0L512 2560L2560 2560L2560 0L512 0M2496 64L2496 2496L576 2496L576 64L2496 64Z"  horiz-adv-x="3072" vert-adv-y="4096"  />

      
      <glyph glyph-name="uni2025" unicode="&#x2025;" d="M512 0L512 2560L2560 2560L2560 0L512 0M2496 64L2496 2496L576 2496L576 64L2496 64Z"  horiz-adv-x="3072" vert-adv-y="4096"  />

      
      <glyph glyph-name="uni21" unicode="&#x21;" d="M872 2441L725 709L643 709L487 2441L487 2564Q487 2851 680 2851Q792 2851 832.50 2769.50Q873 2688 877 2564Q877 2474 872 2441M434 201Q434 301 509 373.50Q584 446 684 446Q783 446 854.50 372.50Q926 299 926 201Q926 101 854 28Q782-45 684-45Q583-45 508.50 28Q434 101 434 201Z"  horiz-adv-x="1364" vert-adv-y="4096"  />

      
      <glyph glyph-name="uni22" unicode="&#x22;" d="M483 2523L483 1831Q483 1696 454 1640.50Q425 1585 348 1585Q267 1585 238 1635.50Q209 1686 209 1831L209 2523Q205 2560 205 2621Q205 2851 348 2851Q425 2851 456 2798Q487 2745 487 2630Q487 2560 483 2523M1151 2523L1151 1831Q1151 1695 1122.50 1640Q1094 1585 1016 1585Q936 1585 906.50 1636Q877 1687 877 1831L877 2523Q872 2560 872 2621Q872 2851 1016 2851Q1094 2851 1124.50 2798.50Q1155 2746 1155 2630Q1155 2560 1151 2523Z"  horiz-adv-x="1364" vert-adv-y="4096"  />

      
      <glyph glyph-name="uni23" unicode="&#x23;" d="M2044 1114L2044 885L1597 885L1470 0L1233 0L1360 885L811 885L676 0L438 0L573 885L135 885L135 1114L610 1114L696 1659L246 1659L246 1888L729 1888L856 2720L1094 2720L967 1888L1511 1888L1634 2720L1872 2720L1749 1888L2146 1888L2146 1659L1716 1659L1634 1114L2044 1114M1479 1659L934 1659L848 1114L1397 1114L1479 1659Z"  horiz-adv-x="2277" vert-adv-y="4096"  />

      
      <glyph glyph-name="uni24" unicode="&#x24;" d="M1237 1192L1237 143Q1423 188 1535 331.50Q1647 475 1647 688Q1647 805 1607.50 890.50Q1568 976 1510.50 1026.50Q1453 1077 1373.50 1119.50Q1294 1162 1237 1192M1073 1642L1073 2585Q902 2546 799 2423.50Q696 2301 696 2126Q696 1909 803.50 1813.50Q911 1718 1073 1642M1237 2597L1237 1569Q1343 1527 1475 1474Q1607 1421 1714 1347.50Q1821 1274 1893.50 1149Q1966 1024 1966 844Q1966 607 1871 425Q1776 243 1609.50 129.50Q1443 16 1237-20L1237-475Q1220-473 1195-468Q1170-463 1155-463Q1140-463 1114-468Q1088-473 1073-475L1073-45Q818-45 634.50-4Q451 37 307 168Q381 426 381 520L426 520Q559 319 703.50 219Q848 119 1073 119L1073 1266Q761 1381 569 1530Q377 1679 377 1999Q377 2321 569 2510.50Q761 2700 1073 2748L1073 3064Q1083 3063 1098.50 3060Q1114 3057 1129.50 3054.50Q1145 3052 1155 3052Q1165 3052 1180.50 3054Q1196 3056 1211.50 3059.50Q1227 3063 1237 3064L1237 2761Q1638 2761 1855 2572Q1791 2433 1749 2249L1704 2249Q1552 2581 1237 2597Z"  horiz-adv-x="2277" vert-adv-y="4096"  />

      
      <glyph glyph-name="uni25" unicode="&#x25;" d="M2630 2851L1106-135Q1040-127 1008-127Q974-127 918-135L2441 2851Q2499 2843 2531 2843Q2564 2843 2630 2851M1495 2089Q1495 1908 1407.50 1747.50Q1320 1587 1169.50 1490Q1019 1393 836 1393Q642 1393 493.50 1480.50Q345 1568 264.50 1722.50Q184 1877 184 2068Q184 2259 274 2415Q364 2571 521.50 2659.50Q679 2748 868 2748Q1149 2748 1322 2560Q1495 2372 1495 2089M3428 643Q3428 453 3338 294.50Q3248 136 3084 37Q3027 5 2932-20Q2837-45 2769-45Q2478-45 2298 143.50Q2118 332 2118 623Q2118 813 2208.50 971.50Q2299 1130 2456 1220.50Q2613 1311 2802 1311Q2987 1311 3129.50 1222.50Q3272 1134 3350 980.50Q3428 827 3428 643M2413 578Q2413 366 2493.50 211.50Q2574 57 2765 57Q2905 57 2987.50 154Q3070 251 3101.50 388Q3133 525 3133 664Q3133 1208 2798 1208Q2580 1208 2496.50 1019Q2413 830 2413 578M479 2015Q479 1806 559.50 1650.50Q640 1495 831 1495Q1031 1495 1115.50 1684Q1200 1873 1200 2101Q1200 2646 864 2646Q645 2646 562 2456Q479 2266 479 2015Z"  horiz-adv-x="3641" vert-adv-y="4096"  />

      
      <glyph glyph-name="uni26" unicode="&#x26;" d="M1307 1663Q1501 1802 1612.50 1950.50Q1724 2099 1724 2294Q1724 2440 1633 2539Q1542 2638 1397 2638Q1227 2638 1138 2529Q1049 2420 1049 2253Q1049 2110 1118.50 1968.50Q1188 1827 1307 1663M2187 582L2699-8Q2535 8 2449 8Q2411 8 2333 3Q2255-2 2216-4Q2070 207 1958 340Q1844 214 1703 124.50Q1562 35 1402-11Q1242-57 1073-57Q850-57 672 26.50Q494 110 394.50 265Q295 420 295 627Q295 1132 1012 1491L1036 1503Q887 1730 824.50 1856Q762 1982 762 2142Q762 2418 937.50 2583Q1113 2748 1393 2748Q1546 2748 1669 2697.50Q1792 2647 1862.50 2549Q1933 2451 1933 2318Q1933 2087 1784.50 1919Q1636 1751 1376 1577Q1425 1516 1535 1371Q1645 1226 1724 1125.50Q1803 1025 1880 938L2097 692Q2341 1044 2585 1499Q2631 1417 2740 1331Q2458 902 2187 582M1106 1405Q1100 1401 1089 1395.50Q1078 1390 1073 1384Q865 1254 746 1096Q627 938 627 721Q627 551 706.50 415.50Q786 280 925 201.50Q1064 123 1229 123Q1435 123 1608.50 227.50Q1782 332 1876 426Q1386 1023 1106 1405Z"  horiz-adv-x="2957" vert-adv-y="4096"  />

      
      <glyph glyph-name="uni27" unicode="&#x27;" d="M705 2523L705 1831Q705 1695 676.50 1640Q648 1585 569 1585Q488 1585 459 1635.50Q430 1686 430 1831L430 2523Q426 2560 426 2621Q426 2851 569 2851Q648 2851 678.50 2798.50Q709 2746 709 2630Q709 2560 705 2523Z"  horiz-adv-x="1139" vert-adv-y="4096"  />

      
      <glyph glyph-name="uni28" unicode="&#x28;" d="M905 3064L987 2986Q854 2803 760.50 2597.50Q667 2392 614 2178Q561 1964 538.50 1742.50Q516 1521 516 1282Q516 835 623 422Q672 232 751.50 71.50Q831-89 987-336L905-418Q727-211 605.50-14.50Q484 182 406 392Q328 602 291 838.50Q254 1075 254 1343Q254 1667 326.50 1972Q399 2277 545 2553.50Q691 2830 905 3064Z"  horiz-adv-x="1139" vert-adv-y="4096"  />

      
      <glyph glyph-name="uni29" unicode="&#x29;" d="M233-418L152-336Q309-88 388 71Q467 230 516 422Q623 835 623 1282Q623 1535 600.50 1751.50Q578 1968 525.50 2178.50Q473 2389 381 2593Q289 2797 152 2986L233 3064Q450 2826 595 2551Q740 2276 812.50 1972Q885 1668 885 1343Q885 1066 848 833Q811 600 734 392Q657 184 533.50-14.50Q410-213 233-418Z"  horiz-adv-x="1139" vert-adv-y="4096"  />

      
      <glyph glyph-name="uni2a" unicode="&#x2a;" d="M336 2556L852 2187L795 2818Q950 2818 1028 2822L967 2179L1479 2560Q1526 2451 1602 2351L1024 2089L1597 1835Q1541 1753 1483 1630L963 1995L1032 1360Q1012 1360 968 1362Q924 1364 901 1364Q831 1364 795 1360L852 1982L352 1618Q311 1687 289.50 1724.50Q268 1762 258 1778L233 1819L807 2085L217 2347Q299 2442 336 2556Z"  horiz-adv-x="1819" vert-adv-y="4096"  />

      
      <glyph glyph-name="uni2b" unicode="&#x2b;" d="M1110 1171L1110 2068L1372 2068L1372 1171L2273 1171L2273 909L1372 909L1372 0L1110 0L1110 909L209 909L209 1171L1110 1171Z"  horiz-adv-x="2482" vert-adv-y="4096"  />

      
      <glyph glyph-name="uni2c" unicode="&#x2c;" d="M188-659L475 250Q512 361 549.50 422Q587 483 664 483Q732 483 781.50 441.50Q831 400 831 332Q831 258 741 115L258-688L188-659Z"  horiz-adv-x="1139" vert-adv-y="4096"  />

      
      <glyph glyph-name="uni2d" unicode="&#x2d;" d="M168 778L168 1032L1192 1032L1192 778L168 778Z"  horiz-adv-x="1364" vert-adv-y="4096"  />

      
      <glyph glyph-name="uni2e" unicode="&#x2e;" d="M324 201Q324 301 398.50 373.50Q473 446 573 446Q673 446 744 373Q815 300 815 201Q815 100 743.50 27.50Q672-45 573-45Q472-45 398 28Q324 101 324 201Z"  horiz-adv-x="1139" vert-adv-y="4096"  />

      
      <glyph glyph-name="uni2f" unicode="&#x2f;" d="M1241 3064L74-418Q16-410-20-410Q-53-410-135-418L1032 3064Q1106 3056 1139 3056Q1175 3056 1241 3064Z"  horiz-adv-x="1139" vert-adv-y="4096"  />

      
      <glyph glyph-name="uni30" unicode="&#x30;" d="M1155 82Q1370 82 1504.50 236Q1639 390 1700 678.50Q1761 967 1761 1376Q1761 1714 1698.50 1994.50Q1636 2275 1501 2444Q1366 2613 1163 2613Q907 2603 766 2460.50Q625 2318 570.50 2050.50Q516 1783 516 1368Q516 839 632.50 460.50Q749 82 1155 82M180 1282Q180 1660 263.50 1986Q347 2312 567.50 2526Q788 2740 1171 2740Q1483 2740 1689.50 2586Q1896 2432 1996.50 2126.50Q2097 1821 2097 1376Q2097 1047 2029 781Q1961 515 1835 331Q1709 147 1534.50 51Q1360-45 1147-45Q622-45 401 309Q180 663 180 1282Z"  horiz-adv-x="2277" vert-adv-y="4096"  />

      
      <glyph glyph-name="uni31" unicode="&#x31;" d="M991-12L991 2462L963 2474L508 2228Q465 2328 385 2380Q920 2598 1249 2802L1319 2781L1319-12Q1283-10 1231.50-5Q1180 0 1155 0Q1127 0 1071-5Q1015-10 991-12Z"  horiz-adv-x="2277" vert-adv-y="4096"  />

      
      <glyph glyph-name="uni32" unicode="&#x32;" d="M504 2150L360 2351Q605 2740 1069 2740Q1309 2740 1494 2664.50Q1679 2589 1783.50 2428Q1888 2267 1888 2023Q1888 1786 1777 1579.50Q1666 1373 1466 1163L979 643L729 381L659 303L680 258Q906 258 1318 276Q1730 294 1937 311Q1936 290 1933 261.50Q1930 233 1927.50 203Q1925 173 1925 156Q1925 137 1927 107.50Q1929 78 1932.50 47Q1936 16 1937 0L180 0L180 61Q238 117 350 230Q462 343 516 397L762 651Q1038 935 1177 1101.50Q1316 1268 1413.50 1497Q1511 1726 1511 2015Q1511 2597 1032 2597Q843 2597 706.50 2474Q570 2351 532 2163L504 2150Z"  horiz-adv-x="2277" vert-adv-y="4096"  />

      
      <glyph glyph-name="uni33" unicode="&#x33;" d="M500 2273L397 2494Q470 2577 629.50 2658.50Q789 2740 999 2740Q1188 2740 1368 2677Q1548 2614 1663 2480.50Q1778 2347 1778 2154Q1778 1915 1632.50 1726Q1487 1537 1225 1442Q1417 1426 1571 1351.50Q1725 1277 1815 1140.50Q1905 1004 1905 811Q1905 550 1766 355Q1627 160 1389 57.50Q1151-45 864-45Q520-45 246 86Q268 140 295 336L319 352Q563 82 872 82Q1078 82 1227.50 175.50Q1377 269 1454.50 433.50Q1532 598 1532 803Q1532 1068 1382.50 1212Q1233 1356 967 1356Q926 1356 865.50 1348.50Q805 1341 770 1339Q772 1356 777 1384Q782 1412 782 1425Q782 1440 777 1468Q772 1496 770 1507Q876 1499 926 1499Q1169 1499 1293 1672Q1417 1845 1417 2097Q1417 2325 1302 2469Q1187 2613 983 2613Q834 2613 705.50 2520Q577 2427 520 2286L500 2273Z"  horiz-adv-x="2277" vert-adv-y="4096"  />

      
      <glyph glyph-name="uni34" unicode="&#x34;" d="M1356 762L86 762L86 815Q279 1100 403.50 1278.50Q528 1457 724 1735Q920 2013 1079 2235Q1238 2457 1425 2720Q1439 2719 1481 2713Q1523 2707 1556 2707Q1582 2707 1618 2712.50Q1654 2718 1683 2720L1683 995L2060 1012Q2052 930 2052 881Q2052 837 2060 745L1683 762L1683-12Q1648-10 1596.50-5Q1545 0 1520 0Q1490 0 1435-5Q1380-10 1356-12L1356 762M1364 995L1364 2310L1343 2327Q1206 2146 1070.50 1954.50Q935 1763 705 1425.50Q475 1088 426 1016L442 995L1364 995Z"  horiz-adv-x="2277" vert-adv-y="4096"  />

      
      <glyph glyph-name="uni35" unicode="&#x35;" d="M508 1380L508 2728L532 2740L1847 2740L1864 2707Q1839 2600 1839 2408Q1545 2474 1286 2474L680 2474L680 1561Q878 1659 1118 1659Q1337 1659 1521 1560.50Q1705 1462 1811 1284.50Q1917 1107 1917 881Q1917 642 1793 428.50Q1669 215 1436 85Q1203-45 897-45Q497-45 242 115L303 385L332 389Q422 244 584 167Q746 90 926 90Q1213 90 1374.50 310.50Q1536 531 1536 848Q1536 1487 950 1487Q713 1487 545 1352L508 1380Z"  horiz-adv-x="2277" vert-adv-y="4096"  />

      
      <glyph glyph-name="uni36" unicode="&#x36;" d="M1630 2728L1675 2585Q1590 2613 1483 2613Q1248 2613 1078 2484Q908 2355 805 2149.50Q702 1944 655 1710Q608 1476 606 1262Q842 1626 1270 1626Q1518 1626 1697 1531.50Q1876 1437 1968 1264.50Q2060 1092 2060 864Q2060 605 1948 396.50Q1836 188 1632 71.50Q1428-45 1167-45Q839-45 630.50 112.50Q422 270 330 532Q238 794 238 1118Q238 1484 325.50 1783.50Q413 2083 575.50 2297.50Q738 2512 960.50 2626Q1183 2740 1446 2740Q1569 2740 1630 2728M1184 1470Q606 1438 606 750Q606 582 673.50 427Q741 272 870 177Q999 82 1171 82Q1344 82 1462.50 187.50Q1581 293 1638.50 466.50Q1696 640 1696 836Q1696 1125 1555.50 1296Q1415 1467 1184 1470Z"  horiz-adv-x="2277" vert-adv-y="4096"  />

      
      <glyph glyph-name="uni37" unicode="&#x37;" d="M328 2740L2077 2740L2081 2621Q1907 2337 1624 1850.50Q1341 1364 1063.50 860.50Q786 357 602-12Q571-10 527.50-5Q484 0 463 0Q438 0 391-5Q344-10 324-12L328 33Q428 198 671 596.50Q914 995 1120 1337.50Q1326 1680 1465.50 1919Q1605 2158 1745 2417L1729 2433Q1116 2423 328 2367Q330 2407 335 2466.50Q340 2526 340 2556Q340 2586 335 2648Q330 2710 328 2740Z"  horiz-adv-x="2277" vert-adv-y="4096"  />

      
      <glyph glyph-name="uni38" unicode="&#x38;" d="M1466 1552L1466 1524Q1564 1504 1692.50 1443.50Q1821 1383 1936.50 1234.50Q2052 1086 2052 848Q2052 580 1935 377.50Q1818 175 1608 65Q1398-45 1130-45Q867-45 663 45Q459 135 344 317Q229 499 229 766Q229 1025 399.50 1235Q570 1445 823 1507L823 1536Q687 1569 530 1700.50Q373 1832 373 2093Q373 2294 484.50 2442Q596 2590 775 2665Q954 2740 1155 2740Q1328 2740 1456.50 2708.50Q1585 2677 1700 2589Q1925 2416 1925 2134Q1925 2004 1863.50 1882Q1802 1760 1697 1673Q1592 1586 1466 1552M1151 2613Q936 2613 811 2429Q753 2346 733 2258.50Q713 2171 713 2048Q713 1848 852 1696Q955 1577 1155 1577Q1375 1577 1499 1765Q1585 1885 1585 2122Q1585 2329 1470 2471Q1355 2613 1151 2613M1151 1446Q974 1446 847 1349Q720 1252 655 1097Q590 942 590 770Q590 581 649.50 425Q709 269 836.50 175.50Q964 82 1155 82Q1425 82 1558.50 296Q1692 510 1692 795Q1692 974 1635 1121.50Q1578 1269 1456 1357.50Q1334 1446 1151 1446Z"  horiz-adv-x="2277" vert-adv-y="4096"  />

      
      <glyph glyph-name="uni39" unicode="&#x39;" d="M393 217L438 233Q610 82 836 82Q1027 82 1203.50 239.50Q1380 397 1487 676Q1618 1024 1618 1450Q1520 1275 1341.50 1176Q1163 1077 958 1077Q741 1077 563.50 1173.50Q386 1270 285 1449.50Q184 1629 184 1868Q184 2133 299.50 2331.50Q415 2530 624 2635Q833 2740 1102 2740Q1411 2740 1610.50 2577.50Q1810 2415 1900.50 2150.50Q1991 1886 1991 1573Q1991 1225 1899 927Q1807 629 1642 410.50Q1477 192 1260 73.50Q1043-45 803-45Q688-45 593.50-26Q499-7 479 8Q468 104 393 217M1614 1905Q1614 2110 1553.50 2271Q1493 2432 1375 2522.50Q1257 2613 1090 2613Q812 2613 678.50 2398.50Q545 2184 545 1892Q545 1624 671.50 1436.50Q798 1249 1057 1249Q1226 1249 1352.50 1344Q1479 1439 1546.50 1592Q1614 1745 1614 1905Z"  horiz-adv-x="2277" vert-adv-y="4096"  />

      
      <glyph glyph-name="uni3a" unicode="&#x3a;" d="M324 201Q324 301 398.50 373.50Q473 446 573 446Q673 446 744 373Q815 300 815 201Q815 100 743.50 27.50Q672-45 573-45Q472-45 398 28Q324 101 324 201M324 1679Q324 1780 398.50 1852.50Q473 1925 573 1925Q672 1925 743.50 1851.50Q815 1778 815 1679Q815 1577 743.50 1505.50Q672 1434 573 1434Q472 1434 398 1506Q324 1578 324 1679Z"  horiz-adv-x="1139" vert-adv-y="4096"  />

      
      <glyph glyph-name="uni3b" unicode="&#x3b;" d="M188-659L475 250Q512 361 549.50 422Q587 483 664 483Q732 483 781.50 441.50Q831 400 831 332Q831 258 741 115L258-688L188-659M397 1679Q397 1780 472 1852.50Q547 1925 647 1925Q745 1925 817 1851Q889 1777 889 1679Q889 1578 817 1506Q745 1434 647 1434Q546 1434 471.50 1506Q397 1578 397 1679Z"  horiz-adv-x="1139" vert-adv-y="4096"  />

      
      <glyph glyph-name="uni3c" unicode="&#x3c;" d="M2286 225L2286-29L201 930L201 1151L2286 2109L2286 1855L532 1040L2286 225Z"  horiz-adv-x="2482" vert-adv-y="4096"  />

      
      <glyph glyph-name="uni3d" unicode="&#x3d;" d="M2273 1569L2273 1307L209 1307L209 1569L2273 1569M2273 774L2273 512L209 512L209 774L2273 774Z"  horiz-adv-x="2482" vert-adv-y="4096"  />

      
      <glyph glyph-name="uni3e" unicode="&#x3e;" d="M197 225L1950 1040L197 1855L197 2109L2281 1151L2281 930L197-29L197 225Z"  horiz-adv-x="2482" vert-adv-y="4096"  />

      
      <glyph glyph-name="uni3f" unicode="&#x3f;" d="M1090 1757L831 1475Q729 1361 676 1276Q623 1191 623 1090Q623 989 687.50 920.50Q752 852 852 852Q911 852 971 877L995 860L946 745Q919 729 836 729Q711 729 603 785.50Q495 842 430 951.50Q365 1061 365 1208Q365 1349 424.50 1459Q484 1569 602 1692L848 1954Q1069 2183 1069 2363Q1069 2518 957 2610.50Q845 2703 688 2703Q593 2703 497 2650.50Q401 2598 344 2519L319 2724Q545 2851 721 2851Q906 2851 1046 2786Q1186 2721 1260.50 2600.50Q1335 2480 1335 2318Q1335 2146 1275.50 2021Q1216 1896 1090 1757M504 201Q504 301 579 373.50Q654 446 754 446Q853 446 924 373Q995 300 995 201Q995 100 923.50 27.50Q852-45 754-45Q653-45 578.50 28Q504 101 504 201Z"  horiz-adv-x="1593" vert-adv-y="4096"  />

      
      <glyph glyph-name="uni40" unicode="&#x40;" d="M1122 1057Q1122 750 1372 750Q1503 750 1632 918Q1761 1086 1845 1313Q1929 1540 1929 1683Q1929 1788 1876 1860.50Q1823 1933 1712 1933Q1545 1933 1410 1782Q1275 1631 1198.50 1421Q1122 1211 1122 1057M2028 1868L2081 2056L2441 2056L2146 983Q2126 900 2126 885Q2126 830 2155.50 790Q2185 750 2241 750Q2326 750 2431.50 811Q2537 872 2634 990Q2731 1108 2793 1285.50Q2855 1463 2855 1679Q2855 1873 2737 2098Q2619 2323 2367 2484.50Q2115 2646 1741 2646Q1463 2646 1222 2554Q981 2462 804.50 2295Q628 2128 529 1897Q430 1666 430 1393Q430 1030 606 743.50Q782 457 1089 300Q1396 143 1765 143Q1980 143 2172.50 213.50Q2365 284 2523.50 413Q2682 542 2802 717L3052 717Q2928 486 2724.50 309Q2521 132 2267 35.50Q2013-61 1745-61Q1436-61 1155 42Q874 145 659 337.50Q444 530 324.50 794Q205 1058 205 1364Q205 1775 402 2115.50Q599 2456 944.50 2653.50Q1290 2851 1712 2851Q2009 2851 2261 2757Q2513 2663 2695.50 2498Q2878 2333 2975 2123.50Q3072 1914 3072 1688Q3072 1463 2986.50 1255Q2901 1047 2765 894Q2629 741 2468.50 653Q2308 565 2167 565Q1996 565 1913 655.50Q1830 746 1819 860Q1661 712 1561.50 649Q1462 586 1307 586Q1086 586 922 758Q758 922 758 1180Q758 1397 881.50 1612Q1005 1827 1209.50 1962Q1414 2097 1642 2097Q1920 2097 2028 1868Z"  horiz-adv-x="3277" vert-adv-y="4096"  />

      
      <glyph glyph-name="uni41" unicode="&#x41;" d="M1438 2851L2666-12Q2625-10 2556-5Q2487 0 2454 0Q2414 0 2341-5Q2268-10 2236-12Q2184 139 2109.50 339.50Q2035 540 1960 726Q1885 912 1806 1094L766 1094Q458 318 360-12Q327-10 279.50-5Q232 0 209 0Q181 0 131.50-5.50Q82-11 66-12L1343 2851L1438 2851M1745 1266L1290 2314L844 1266L1745 1266Z"  horiz-adv-x="2732" vert-adv-y="4096"  />

      
      <glyph glyph-name="uni42" unicode="&#x42;" d="M750 2638L750 1556L918 1556Q1246 1556 1434 1642Q1586 1715 1667.50 1843.50Q1749 1972 1749 2138Q1749 2417 1573.50 2527.50Q1398 2638 1053 2638L750 2638M750 1405L750 152L1139 152Q1337 152 1494 232.50Q1651 313 1739 458.50Q1827 604 1827 786Q1827 1128 1606 1266.50Q1385 1405 979 1405L750 1405M975 0L389 0L389 2789L1192 2789Q1500 2789 1701 2734.50Q1902 2680 2003.50 2555.50Q2105 2431 2105 2224Q2105 1947 1924 1758.50Q1743 1570 1458 1499Q1756 1480 1982 1328.50Q2208 1177 2208 856Q2208 418 1839 164Q1678 55 1475 27.50Q1272 0 975 0Z"  horiz-adv-x="2503" vert-adv-y="4096"  />

      
      <glyph glyph-name="uni43" unicode="&#x43;" d="M2523 430L2503 172Q2154-61 1597-61Q1264-61 996.50 40.50Q729 142 540 335Q351 528 253.50 800Q156 1072 156 1405Q156 1851 358.50 2180Q561 2509 914 2680Q1267 2851 1700 2851Q2145 2851 2580 2662Q2532 2539 2494 2347L2466 2343Q2427 2394 2316 2478Q2205 2562 2038 2628.50Q1871 2695 1683 2695Q1410 2695 1197 2592.50Q984 2490 842 2309.50Q700 2129 628.50 1892.50Q557 1656 557 1389Q557 1004 695.50 710Q834 416 1084.50 257Q1335 98 1655 98Q1938 98 2167 210Q2396 322 2523 430Z"  horiz-adv-x="2732" vert-adv-y="4096"  />

      
      <glyph glyph-name="uni44" unicode="&#x44;" d="M770 2626L770 184Q885 177 959 172.50Q1033 168 1130 164Q1227 160 1290 160Q1727 160 1970 283Q2560 577 2560 1458Q2560 1788 2489 2013Q2418 2238 2268.50 2376Q2119 2514 1876.50 2578Q1634 2642 1286 2642Q1203 2642 1031.50 2635Q860 2628 770 2626M410 0L410 2789L1339 2789L1622 2789Q1916 2789 2129 2742Q2342 2695 2523 2544Q2744 2362 2852.50 2093.50Q2961 1825 2961 1520Q2961 765 2445 311Q2283 170 2084 102Q1885 34 1686 17Q1487 0 1208 0L410 0Z"  horiz-adv-x="3187" vert-adv-y="4096"  />

      
      <glyph glyph-name="uni45" unicode="&#x45;" d="M725 2597L725 1569L1360 1569Q1434 1569 1565 1578.50Q1696 1588 1724 1589Q1723 1580 1719.50 1558Q1716 1536 1714 1515.50Q1712 1495 1712 1483Q1712 1473 1714.50 1450Q1717 1427 1720 1406Q1723 1385 1724 1368Q1665 1370 1549.50 1379.50Q1434 1389 1360 1389L725 1389L725 193Q976 193 1466 209Q1655 215 1843 246Q1842 231 1839 207.50Q1836 184 1833.50 160.50Q1831 137 1831 123Q1831 95 1835.50 63Q1840 31 1843 0L365 0L365 2789L1819 2789Q1817 2764 1811.50 2728.50Q1806 2693 1806 2666Q1806 2640 1811.50 2602.50Q1817 2565 1819 2544Q1671 2573 1450 2589L1040 2597L725 2597Z"  horiz-adv-x="2048" vert-adv-y="4096"  />

      
      <glyph glyph-name="uni46" unicode="&#x46;" d="M365-12L365 2789L1819 2789Q1817 2764 1811.50 2728.50Q1806 2693 1806 2666Q1806 2640 1811.50 2602.50Q1817 2565 1819 2544Q1671 2573 1450 2589L1040 2597L725 2597L725 1569L1360 1569Q1434 1569 1565 1578.50Q1696 1588 1724 1589Q1723 1580 1719.50 1558Q1716 1536 1714 1515.50Q1712 1495 1712 1483Q1712 1473 1714.50 1450Q1717 1427 1720 1406Q1723 1385 1724 1368Q1665 1370 1549.50 1379.50Q1434 1389 1360 1389L725 1389L725-12Q687-10 629.50-5Q572 0 545 0Q513 0 452-5Q391-10 365-12Z"  horiz-adv-x="2048" vert-adv-y="4096"  />

      
      <glyph glyph-name="uni47" unicode="&#x47;" d="M2810 2298L2765 2298Q2596 2490 2352.50 2592.50Q2109 2695 1843 2695Q1582 2695 1364.50 2610Q1147 2525 991 2360.50Q835 2196 749.50 1955.50Q664 1715 664 1409Q664 1002 802.50 706Q941 410 1217 252Q1493 94 1888 94Q2260 94 2527 233L2527 1286Q2546 1285 2581 1282Q2616 1279 2651 1276.50Q2686 1274 2707 1274Q2725 1274 2760.50 1276.50Q2796 1279 2830 1282Q2864 1285 2888 1286L2888 127Q2342-61 1774-61Q1271-61 931.50 124Q592 309 427 636Q262 963 262 1389Q262 1852 467.50 2183Q673 2514 1037 2682.50Q1401 2851 1860 2851Q2133 2851 2352 2808Q2571 2765 2701.50 2711.50Q2832 2658 2904 2613Q2872 2525 2810 2298Z"  horiz-adv-x="3187" vert-adv-y="4096"  />

      
      <glyph glyph-name="uni48" unicode="&#x48;" d="M2454 1614L2454 2789Q2471 2788 2507 2784.50Q2543 2781 2578 2779Q2613 2777 2634 2777Q2653 2777 2687.50 2779.50Q2722 2782 2756 2785Q2790 2788 2814 2789L2814-12Q2776-10 2718.50-5Q2661 0 2634 0Q2602 0 2541-5Q2480-10 2454-12L2454 1397Q1726 1417 1593 1417Q1467 1417 729 1397L729-12Q694-10 635-5Q576 0 549 0Q517 0 456-5Q395-10 369-12L369 2789Q386 2788 422 2784.50Q458 2781 493 2779Q528 2777 549 2777Q568 2777 602.50 2779.50Q637 2782 673 2785Q709 2788 729 2789L729 1614Q882 1610 1150 1601.50Q1418 1593 1593 1593Q1772 1593 2038 1601.50Q2304 1610 2454 1614Z"  horiz-adv-x="3187" vert-adv-y="4096"  />

      
      <glyph glyph-name="uni49" unicode="&#x49;" d="M389-12L389 2789Q406 2788 442 2784.50Q478 2781 513 2779Q548 2777 569 2777Q587 2777 622.50 2779.50Q658 2782 692 2785Q726 2788 750 2789L750-12Q714-10 656-5Q598 0 569 0Q539 0 477-5Q415-10 389-12Z"  horiz-adv-x="1139" vert-adv-y="4096"  />

      
      <glyph glyph-name="uni4a" unicode="&#x4a;" d="M811 2789L811 356Q811 88 711.50-118Q612-324 422-441Q232-558-25-565L-57-455Q250-443 350.50-239.50Q451-36 451 303L451 2789Q468 2788 504 2784.50Q540 2781 575 2779Q610 2777 631 2777Q650 2777 684.50 2779.50Q719 2782 753 2785Q787 2788 811 2789Z"  horiz-adv-x="1139" vert-adv-y="4096"  />

      
      <glyph glyph-name="uni4b" unicode="&#x4b;" d="M2384 2789L1454 1896L1106 1544Q1227 1406 1353 1264Q1479 1122 1603 983.50Q1727 845 1873.50 679.50Q2020 514 2101 418L2433 8L2433-12Q2387-10 2313.50-5Q2240 0 2208 0Q2168 0 2090-5Q2012-10 1978-12Q1825 211 1696 360L803 1405Q773 1425 745 1425Q733 1425 733 1417L733-12Q698-10 639-5Q580 0 553 0Q523 0 461-5Q399-10 373-12L373 2789Q390 2788 426 2784.50Q462 2781 497 2779Q532 2777 553 2777Q572 2777 606.50 2779.50Q641 2782 677 2785Q713 2788 733 2789L733 1524Q733 1516 754 1516Q790 1516 836 1548Q901 1600 1053 1749L2060 2789Q2101 2786 2143.50 2781.50Q2186 2777 2224 2777Q2240 2777 2271 2779.50Q2302 2782 2332.50 2785Q2363 2788 2384 2789Z"  horiz-adv-x="2503" vert-adv-y="4096"  />

      
      <glyph glyph-name="uni4c" unicode="&#x4c;" d="M725 2789L725 193Q976 193 1466 209Q1602 213 1855 246Q1854 231 1851 207.50Q1848 184 1845.50 160.50Q1843 137 1843 123Q1843 95 1847.50 63Q1852 31 1855 0L365 0L365 2789Q382 2788 418 2784.50Q454 2781 489 2779Q524 2777 545 2777Q564 2777 598.50 2779.50Q633 2782 667 2785Q701 2788 725 2789Z"  horiz-adv-x="2048" vert-adv-y="4096"  />

      
      <glyph glyph-name="uni4d" unicode="&#x4d;" d="M3019 2789L3105 2789Q3168 2201 3195.50 1949Q3223 1697 3268.50 1308.50Q3314 920 3356 596Q3398 272 3437-12Q3395-10 3333.50-5Q3272 0 3244 0Q3210 0 3145-5Q3080-10 3052-12Q3026 291 2982 775Q2938 1259 2904.50 1581.50Q2871 1904 2843 2101Q2069 722 1769 33L1724 33L1499 496Q1398 706 1293.50 910.50Q1189 1115 1093.50 1298Q998 1481 887.50 1691.50Q777 1902 672 2101Q657 1963 611 1573Q565 1183 535 900.50Q505 618 488 392Q471 166 471-12Q440-10 394.50-5Q349 0 328 0Q300 0 251-5Q202-10 180-12Q220 234 317 893.50Q414 1553 483.50 2067Q553 2581 573 2789L680 2789Q883 2387 1062.50 2040Q1242 1693 1432.50 1347.50Q1623 1002 1839 643Q1874 705 2068 1059Q2262 1413 2412.50 1690.50Q2563 1968 2696 2210Q2829 2452 3019 2789Z"  horiz-adv-x="3641" vert-adv-y="4096"  />

      
      <glyph glyph-name="uni4e" unicode="&#x4e;" d="M2785 2789L2785-12L2662-12Q2571 103 2449 238L680 2195L639 2195L639-12Q616-10 579-5Q542 0 524 0Q503 0 464-5Q425-10 410-12L410 2789L569 2789L2515 680L2556 680L2556 2789Q2584 2786 2614 2781.50Q2644 2777 2671 2777Q2683 2777 2704.50 2779Q2726 2781 2748.50 2784.50Q2771 2788 2785 2789Z"  horiz-adv-x="3187" vert-adv-y="4096"  />

      
      <glyph glyph-name="uni4f" unicode="&#x4f;" d="M2839 1417Q2839 1702 2784 1914.50Q2729 2127 2580 2318Q2429 2510 2203 2613Q1977 2716 1729 2716Q1374 2716 1112 2546Q850 2376 711.50 2064Q573 1752 573 1339Q573 939 722 652Q871 365 1127 219.50Q1383 74 1692 74Q1986 74 2206 201.50Q2426 329 2565.50 533.50Q2705 738 2772 972.50Q2839 1207 2839 1417M1679-61Q1345-61 1065.50 41.50Q786 144 586 336.50Q386 529 279 797.50Q172 1066 172 1389Q172 1718 287.50 1990.50Q403 2263 610.50 2455Q818 2647 1094 2749Q1370 2851 1688 2851Q1987 2851 2264 2768Q2541 2685 2761.50 2513Q2982 2341 3111 2073Q3240 1805 3240 1450Q3240 1113 3126.50 833.50Q3013 554 2801.50 352.50Q2590 151 2303 45Q2016-61 1679-61Z"  horiz-adv-x="3412" vert-adv-y="4096"  />

      
      <glyph glyph-name="uni50" unicode="&#x50;" d="M684 1274L684-12Q646-10 588.50-5Q531 0 504 0Q472 0 411-5Q350-10 324-12L324 2789L1057 2789Q1459 2789 1687 2724.50Q1915 2660 2014.50 2515Q2114 2370 2114 2118Q2114 1935 2058.50 1796.50Q2003 1658 1894.50 1560Q1786 1462 1622.50 1394Q1459 1326 1237 1282Q1145 1262 999 1262Q925 1262 816 1268Q707 1274 684 1274M684 2630L684 1434Q803 1425 872 1425Q932 1425 1090 1434Q1394 1465 1565.50 1643.50Q1737 1822 1737 2097Q1737 2242 1687.50 2355.50Q1638 2469 1534.50 2540Q1431 2611 1274 2626Q1188 2634 958 2634Q745 2634 684 2630Z"  horiz-adv-x="2277" vert-adv-y="4096"  />

      
      <glyph glyph-name="uni51" unicode="&#x51;" d="M1688 2851Q2124 2851 2477 2688Q2830 2525 3035 2209.50Q3240 1894 3240 1458Q3240 1064 3094.50 774Q2949 484 2707 299.50Q2465 115 2163 12Q2256-57 2490.50-237.50Q2725-418 2851-512.50Q2977-607 3080-680Q2845-785 2761-848Q2729-800 2392-503.50Q2055-207 1835-49Q1811-52 1784.50-56.50Q1758-61 1737-61Q1282-59 925.50 110.50Q569 280 370.50 608Q172 936 172 1393Q172 1809 372 2142.50Q572 2476 921 2663.50Q1270 2851 1688 2851M2839 1417Q2839 1702 2784 1914Q2729 2126 2580 2314Q2428 2509 2203 2612.50Q1978 2716 1729 2716Q1345 2716 1083.50 2527Q822 2338 697.50 2026Q573 1714 573 1339Q573 921 727 634.50Q881 348 1135.50 211Q1390 74 1692 74Q2026 74 2254.50 223.50Q2483 373 2609.50 594.50Q2736 816 2787.50 1037.50Q2839 1259 2839 1417Z"  horiz-adv-x="3412" vert-adv-y="4096"  />

      
      <glyph glyph-name="uni52" unicode="&#x52;" d="M729 2638L729 1511Q736 1511 803 1509Q870 1507 922 1507Q1126 1507 1257 1532Q1492 1581 1637 1733.50Q1782 1886 1782 2118Q1782 2562 1331 2634Q1266 2646 1077 2646Q1020 2644 900 2642Q779 2640 729 2638M369-12L369 2789L1237 2789Q1549 2789 1751 2720.50Q1953 2652 2049.50 2513Q2146 2374 2146 2167Q2146 1837 1904 1644.50Q1662 1452 1307 1389L2150 319L2347 90L2425-12Q2379-10 2302-5Q2225 0 2187 0Q2147 0 2069-5Q1991-10 1954-12Q1805 198 1696 344L1212 971L885 1356L729 1356L729-12Q694-10 635-5Q576 0 549 0Q517 0 456-5Q395-10 369-12Z"  horiz-adv-x="2503" vert-adv-y="4096"  />

      
      <glyph glyph-name="uni53" unicode="&#x53;" d="M262 541L303 541Q432 330 586 222.50Q740 115 967 115Q1129 115 1259 196Q1389 277 1462.50 414.50Q1536 552 1536 713Q1536 966 1382.50 1081Q1229 1196 906 1324Q583 1452 418.50 1603.50Q254 1755 254 2064Q254 2318 376 2496Q498 2674 704 2762.50Q910 2851 1163 2851Q1323 2851 1482 2801Q1641 2751 1749 2654Q1711 2571 1638 2318L1597 2318Q1532 2486 1400 2580.50Q1268 2675 1090 2675Q872 2675 722.50 2541.50Q573 2408 573 2195Q573 1946 729 1828.50Q885 1711 1209.50 1582.50Q1534 1454 1699 1309Q1864 1164 1864 872Q1864 588 1729.50 376Q1595 164 1364 51.50Q1133-61 852-61Q689-61 486.50 4Q284 69 184 176Q233 318 262 541Z"  horiz-adv-x="2048" vert-adv-y="4096"  />

      
      <glyph glyph-name="uni54" unicode="&#x54;" d="M1339 2593L1339-20Q1304-18 1246-13Q1188-8 1159-8Q1129-8 1067-13Q1005-18 979-20L979 2593Q558 2593 82 2544Q84 2565 89 2606Q94 2647 94 2666Q94 2686 89 2725Q84 2764 82 2789L2195 2789Q2194 2774 2191 2750.50Q2188 2727 2185.50 2703.50Q2183 2680 2183 2666Q2183 2652 2185 2629Q2187 2606 2190.50 2581Q2194 2556 2195 2544Q1779 2593 1339 2593Z"  horiz-adv-x="2277" vert-adv-y="4096"  />

      
      <glyph glyph-name="uni55" unicode="&#x55;" d="M745 2789L745 1221Q745 942 789.50 740.50Q834 539 937.50 402Q1041 265 1216 196Q1391 127 1651 127Q1965 127 2162 268.50Q2359 410 2447 663.50Q2535 917 2535 1262L2535 2789Q2563 2786 2593 2781.50Q2623 2777 2650 2777Q2663 2777 2685 2779.50Q2707 2782 2729 2785Q2751 2788 2765 2789L2765 1159Q2765 762 2618 488Q2471 214 2202 76.50Q1933-61 1569-61Q1271-61 1056.50 9Q842 79 680 225Q559 335 495 483.50Q431 632 409 796Q387 960 385 1151L385 2789Q402 2788 438 2784.50Q474 2781 509 2779Q544 2777 565 2777Q583 2777 618.50 2779.50Q654 2782 688.50 2785Q723 2788 745 2789Z"  horiz-adv-x="3187" vert-adv-y="4096"  />

      
      <glyph glyph-name="uni56" unicode="&#x56;" d="M1692 930L2122 2040L2367 2724L2396 2789Q2433 2786 2472.50 2781.50Q2512 2777 2548 2777Q2562 2777 2591.50 2779.50Q2621 2782 2648 2785Q2675 2788 2695 2789Q2648 2699 2485.50 2332.50Q2323 1966 2104 1451.50Q1885 937 1725 545.50Q1565 154 1511-12Q1497-10 1469-5Q1441 0 1430 0Q1415 0 1385-5Q1355-10 1343-12Q1180 327 1010 710Q840 1093 620.50 1604Q401 2115 280 2394Q159 2673 98 2789Q117 2788 157 2784.50Q197 2781 235 2779Q273 2777 295 2777Q317 2777 356 2779.50Q395 2782 432 2785Q469 2788 496 2789Q549 2662 647 2392L922 1675L1425 434L1462 434Q1481 475 1567.50 654.50Q1654 834 1692 930Z"  horiz-adv-x="2732" vert-adv-y="4096"  />

      
      <glyph glyph-name="uni57" unicode="&#x57;" d="M782 528L49 2789Q70 2788 108 2784.50Q146 2781 182.50 2779Q219 2777 242 2777Q260 2777 296.50 2779.50Q333 2782 370 2785Q407 2788 430 2789Q449 2730 553 2355L795 1524L1139 442L1176 442Q1862 2407 1970 2789Q1982 2788 2005.50 2784.50Q2029 2781 2052.50 2779Q2076 2777 2089 2777Q2102 2777 2124 2779.50Q2146 2782 2168 2785Q2190 2788 2204 2789Q2233 2686 2298.50 2483Q2364 2280 2490 1908Q2616 1536 2745.50 1152Q2875 768 2982 442L3019 442Q3095 637 3183 909L3662 2454L3760 2789Q3773 2788 3801.50 2785Q3830 2782 3858 2779.50Q3886 2777 3903 2777Q3917 2777 3945.50 2779.50Q3974 2782 4001.50 2785Q4029 2788 4047 2789Q3928 2519 3842 2265L3060-12Q3033-10 2990-5Q2947 0 2925 0Q2901 0 2855-5Q2809-10 2789-12Q2768 57 2692.50 292Q2617 527 2523 816.50Q2429 1106 2297.50 1513Q2166 1920 2048 2286L2015 2286L1221-12Q1191-10 1147.50-5Q1104 0 1085 0Q1060 0 1013-5Q966-10 946-12Q876 223 849 314Q822 405 782 528Z"  horiz-adv-x="4096" vert-adv-y="4096"  />

      
      <glyph glyph-name="uni58" unicode="&#x58;" d="M643 713L1098 1397Q1045 1483 988 1577.50Q931 1672 795.50 1895.50Q660 2119 627 2171L221 2789Q242 2788 286.50 2784.50Q331 2781 375 2779Q418 2777 442 2777Q464 2777 507.50 2779.50Q551 2782 593 2785Q635 2788 664 2789Q757 2636 872 2437L1307 1692Q1384 1816 1490 1977Q1596 2138 1675.50 2258Q1755 2378 1840 2517.50Q1925 2657 1995 2789Q2032 2786 2071.50 2781.50Q2111 2777 2146 2777Q2178 2777 2218.50 2781.50Q2259 2786 2298 2789Q2263 2756 2228 2707L1602 1835L1401 1532L2351-12Q2308-10 2235.50-5Q2163 0 2126 0Q2086 0 2009-5Q1932-10 1901-12Q1571 633 1192 1233Q807 651 451-12Q421-10 372-5Q323 0 299 0Q272 0 222-5Q172-10 147-12Q241 129 398.50 355.50Q556 582 643 713Z"  horiz-adv-x="2503" vert-adv-y="4096"  />

      
      <glyph glyph-name="uni59" unicode="&#x59;" d="M1446 1245L1446-12Q1408-10 1350.50-5Q1293 0 1266 0Q1234 0 1174-5Q1114-10 1085-12L1085 1167L82 2789Q103 2788 150 2784.50Q197 2781 241 2779Q284 2777 311 2777Q334 2777 378 2779.50Q422 2782 464 2785Q506 2788 537 2789Q607 2650 775.50 2346Q944 2042 1098.50 1776Q1253 1510 1315 1417Q1377 1490 1525.50 1749Q1674 2008 1881.50 2391.50Q2089 2775 2097 2789Q2115 2788 2145.50 2784.50Q2176 2781 2207.50 2779Q2239 2777 2257 2777Q2273 2777 2304 2779.50Q2335 2782 2365.50 2785Q2396 2788 2417 2789Q2269 2600 2126 2380L1675 1655Q1539 1446 1446 1245Z"  horiz-adv-x="2503" vert-adv-y="4096"  />

      
      <glyph glyph-name="uni5a" unicode="&#x5a;" d="M70 90L1262 1753Q1730 2429 1843 2605L1843 2613L1376 2609Q1205 2609 1009.50 2598.50Q814 2588 591.50 2571Q369 2554 238 2544Q240 2565 245 2606Q250 2647 250 2666Q250 2686 245 2725Q240 2764 238 2789L2392 2789L2392 2712Q2175 2430 1965 2147.50Q1755 1865 1522 1537.50Q1289 1210 1055 865Q821 520 606 188L606 180L1229 180Q1644 189 2376 246Q2374 221 2368.50 185.50Q2363 150 2363 123Q2363 95 2368.50 56.50Q2374 18 2376 0L70 0L70 90Z"  horiz-adv-x="2503" vert-adv-y="4096"  />

      
      <glyph glyph-name="uni5b" unicode="&#x5b;" d="M553-475L553 3064L1196 3064L1196 2945L799 2945L799-356L1196-356L1196-475L553-475Z"  horiz-adv-x="1364" vert-adv-y="4096"  />

      
      <glyph glyph-name="uni5c" unicode="&#x5c;" d="M389 3064L1913 0Q1868 8 1782 8Q1700 8 1659 0L135 3064Q225 3056 262 3056Q307 3056 389 3064Z"  horiz-adv-x="2048" vert-adv-y="4096"  />

      
      <glyph glyph-name="uni5d" unicode="&#x5d;" d="M811 3064L811-475L168-475L168-356L565-356L565 2945L168 2945L168 3064L811 3064Z"  horiz-adv-x="1364" vert-adv-y="4096"  />

      
      <glyph glyph-name="uni5e" unicode="&#x5e;" d="M496 1126L209 1126L1106 2789L1376 2789L2269 1126L1982 1126L1241 2462L496 1126Z"  horiz-adv-x="2482" vert-adv-y="4096"  />

      
      <glyph glyph-name="uni5f" unicode="&#x5f;" d="M2048-655L0-655L0-500L2048-500L2048-655Z"  horiz-adv-x="2048" vert-adv-y="4096"  />

      
      <glyph glyph-name="uni60" unicode="&#x60;" d="M983 2179L840 2179L197 2580Q106 2651 94 2671Q82 2701 82 2728Q82 2749 90 2781Q124 2867 258 2867Q298 2852 311 2839Q338 2820 467 2691L983 2179Z"  horiz-adv-x="1364" vert-adv-y="4096"  />

      
      <glyph glyph-name="uni61" unicode="&#x61;" d="M1692 1282L1692 332Q1692 217 1710 172Q1728 127 1802 127Q1856 127 1921 143L1921 53Q1840 19 1798 12Q1731 0 1667 0Q1408 7 1376 250L1339 213Q1081-45 733-45Q507-45 347.50 95.50Q188 236 188 455Q188 672 289.50 790.50Q391 909 545.50 957.50Q700 1006 946 1044Q1129 1075 1214.50 1099.50Q1300 1124 1340 1173Q1380 1222 1380 1319Q1380 1546 1255 1672Q1130 1798 901 1798Q703 1798 573 1703.50Q443 1609 414 1516L369 1516L369 1745Q696 1970 1028 1970Q1692 1970 1692 1282M1364 410L1364 1008L1221 979Q1005 938 930 922Q855 906 754.50 859.50Q654 813 589 728.50Q524 644 524 512Q524 322 630 224.50Q736 127 926 127Q1004 127 1098.50 174.50Q1193 222 1253 283Q1364 390 1364 410Z"  horiz-adv-x="2048" vert-adv-y="4096"  />

      
      <glyph glyph-name="uni62" unicode="&#x62;" d="M0 0L266 0L266 3064Q306 3061 349.50 3056.50Q393 3052 430 3052Q448 3052 479 3054.50Q510 3057 540.50 3060Q571 3063 594 3064L594 1548Q880 1970 1303 1970Q1575 1970 1762.50 1833Q1950 1696 2040 1477.50Q2130 1259 2130 1020Q2130 743 2019.50 498Q1909 253 1698 104Q1487-45 1204-45Q814-45 623 246Q558 197 497 140.50Q436 84 344 0L0 0M1200 1798Q876 1798 731 1524Q586 1250 586 836Q586 499 741 292.50Q896 86 1159 86Q1473 86 1621 371Q1769 656 1769 1004Q1769 1358 1628 1576.50Q1487 1795 1200 1798Z"  horiz-adv-x="2277" vert-adv-y="4096"  />

      
      <glyph glyph-name="uni63" unicode="&#x63;" d="M1876 1802L1782 1532L1749 1532Q1668 1642 1638 1667Q1570 1745 1457 1788Q1344 1831 1233 1831Q1007 1831 847.50 1714.50Q688 1598 608 1406Q528 1214 528 991Q528 733 621.50 527.50Q715 322 884.50 208Q1054 94 1274 94Q1387 94 1481.50 126.50Q1576 159 1656.50 214Q1737 269 1839 360L1864 348L1843 160Q1564-45 1217-45Q887-45 648.50 87Q410 219 289 449.50Q168 680 168 971Q168 1279 304 1506Q440 1733 681.50 1851.50Q923 1970 1229 1970Q1601 1970 1876 1802Z"  horiz-adv-x="2048" vert-adv-y="4096"  />

      
      <glyph glyph-name="uni64" unicode="&#x64;" d="M1995 3064L1995-12Q1959-10 1907.50-5Q1856 0 1831 0Q1803 0 1747-5Q1691-10 1667-12L1667 381Q1418-45 963-45Q728-45 542 65.50Q356 176 249.50 399.50Q143 623 143 946Q143 1230 251.50 1464Q360 1698 561 1834Q762 1970 1024 1970Q1436 1970 1667 1573L1667 3064Q1707 3061 1750.50 3056.50Q1794 3052 1831 3052Q1849 3052 1880 3054.50Q1911 3057 1941.50 3060Q1972 3063 1995 3064M1667 1020Q1667 1328 1533.50 1565Q1400 1802 1114 1802Q504 1802 504 889Q504 692 558 514Q612 336 738 219Q864 102 1065 102Q1386 102 1526.50 384Q1667 666 1667 1020Z"  horiz-adv-x="2277" vert-adv-y="4096"  />

      
      <glyph glyph-name="uni65" unicode="&#x65;" d="M1815 410L1810 197Q1474-45 1106-45Q824-45 604 75.50Q384 196 261.50 424Q139 652 139 963Q139 1250 248 1479.50Q357 1709 569 1839.50Q781 1970 1077 1970Q1302 1970 1493 1868.50Q1684 1767 1798.50 1561Q1913 1355 1913 1057Q1913 1043 1911 1013Q1909 983 1909 967Q1491 979 1077 979L500 979Q496 950 496 893Q496 678 578.50 504Q661 330 822.50 228.50Q984 127 1208 127Q1521 127 1815 410M500 1130L1589 1130Q1573 1843 1077 1843Q896 1843 769.50 1741Q643 1639 578 1476.50Q513 1314 500 1130Z"  horiz-adv-x="2048" vert-adv-y="4096"  />

      
      <glyph glyph-name="uni66" unicode="&#x66;" d="M360-12L360 1790L78 1790Q86 1815 86 1868Q86 1921 78 1946L360 1946L369 1978Q395 2172 448.50 2354Q502 2536 601.50 2699Q701 2862 858.50 2963Q1016 3064 1233 3064Q1212 2957 1212 2736L1192 2720L1110 2761Q1054 2781 967 2781Q623 2781 623 2355Q623 2179 680 1946L1098 1946Q1090 1896 1090 1868Q1090 1840 1098 1790L688 1790L688-12Q656-10 603.50-5Q551 0 524 0Q495 0 441-5Q387-10 360-12Z"  horiz-adv-x="1139" vert-adv-y="4096"  />

      
      <glyph glyph-name="uni67" unicode="&#x67;" d="M1032 20Q711 20 554-97.50Q397-215 397-463Q397-704 559.50-831Q722-958 987-958Q1243-958 1438.50-828.50Q1634-699 1634-434Q1634-236 1553-136Q1472-36 1347-8Q1222 20 1032 20M1901 1958L1901 1802L1450 1839Q1733 1618 1733 1298Q1733 1084 1617 941.50Q1501 799 1303 731.50Q1105 664 860 664Q716 664 640.50 625.50Q565 587 565 467Q565 347 658 308.50Q751 270 958 270L1221 270Q1929 270 1929-274Q1929-510 1800-694.50Q1671-879 1435-980Q1199-1081 889-1081Q709-1081 538.50-1017Q368-953 257.50-816.50Q147-680 147-479Q147-59 573 16L573 49Q324 93 324 381Q324 516 397 595.50Q470 675 606 733Q410 825 309.50 964Q209 1103 209 1319Q209 1627 403 1798.50Q597 1970 1036 1970L1606 1950Q1642 1946 1720 1946Q1808 1946 1901 1958M520 1323Q520 1168 572.50 1040Q625 912 726 839Q827 766 967 766Q1112 766 1214 840Q1316 914 1368.50 1036.50Q1421 1159 1421 1303Q1421 1559 1317.50 1709.50Q1214 1860 983 1860Q766 1860 643 1711Q520 1562 520 1323Z"  horiz-adv-x="2048" vert-adv-y="4096"  />

      
      <glyph glyph-name="uni68" unicode="&#x68;" d="M315-12L315 3064Q356 3061 398.50 3056.50Q441 3052 479 3052Q497 3052 528 3054.50Q559 3057 591 3060Q623 3063 643 3064L643 1573Q870 1970 1303 1970Q1650 1970 1806 1770Q1962 1570 1962 1171L1962-12Q1930-10 1876.50-5Q1823 0 1798 0Q1769 0 1715-5Q1661-10 1634-12L1634 1077Q1634 1311 1592 1460Q1550 1609 1450 1683Q1350 1757 1180 1757Q643 1757 643 1102L643-12Q611-10 557.50-5Q504 0 479 0Q450 0 396-5Q342-10 315-12Z"  horiz-adv-x="2277" vert-adv-y="4096"  />

      
      <glyph glyph-name="uni69" unicode="&#x69;" d="M733 1946L733-12Q701-10 648.50-5Q596 0 569 0Q540 0 485-5Q430-10 406-12L406 1946Q430 1944 480.50 1938.50Q531 1933 569 1933Q605 1933 652.50 1938.50Q700 1944 733 1946M778 2646Q778 2559 715 2498Q652 2437 569 2437Q485 2437 422.50 2498.50Q360 2560 360 2646Q360 2732 421.50 2793.50Q483 2855 569 2855Q654 2855 716 2794Q778 2733 778 2646Z"  horiz-adv-x="1139" vert-adv-y="4096"  />

      
      <glyph glyph-name="uni6a" unicode="&#x6a;" d="M430-16L430 1946Q454 1944 505.50 1938.50Q557 1933 594 1933Q628 1933 675 1938.50Q722 1944 758 1946L758-33Q758-326 708-533.50Q658-741 500-897Q290-1081 29-1081L0-950L37-958Q151-958 217.50-889.50Q284-821 336-700Q430-467 430-16M803 2646Q803 2559 740 2498Q677 2437 594 2437Q509 2437 447 2499Q385 2561 385 2646Q385 2731 446 2793Q507 2855 594 2855Q679 2855 741 2794Q803 2733 803 2646Z"  horiz-adv-x="1139" vert-adv-y="4096"  />

      
      <glyph glyph-name="uni6b" unicode="&#x6b;" d="M651 3064L651 1229Q651 1106 672 1094Q787 1094 1028 1335L1282 1593L1602 1946Q1626 1944 1676.50 1938.50Q1727 1933 1765 1933Q1798 1933 1844 1938.50Q1890 1944 1925 1946L1925 1917Q1911 1904 1692 1717.50Q1473 1531 1324.50 1400.50Q1176 1270 1024 1126Q1144 988 1361.50 733.50Q1579 479 1712 324Q1845 169 1987 8L1987-12Q1944-10 1880-5Q1816 0 1786 0Q1748 0 1681-5Q1614-10 1581-12Q1411 210 799 909Q739 975 705 975Q651 975 651 823L651-12Q619-10 566.50-5Q514 0 487 0Q458 0 403-5Q348-10 324-12L324 3064Q364 3061 406.50 3056.50Q449 3052 487 3052Q504 3052 536 3054.50Q568 3057 598.50 3060Q629 3063 651 3064Z"  horiz-adv-x="2048" vert-adv-y="4096"  />

      
      <glyph glyph-name="uni6c" unicode="&#x6c;" d="M406-12L406 3064Q446 3061 488.50 3056.50Q531 3052 569 3052Q586 3052 618 3054.50Q650 3057 680.50 3060Q711 3063 733 3064L733-12Q701-10 648.50-5Q596 0 569 0Q540 0 485-5Q430-10 406-12Z"  horiz-adv-x="1139" vert-adv-y="4096"  />

      
      <glyph glyph-name="uni6d" unicode="&#x6d;" d="M291-12L291 1946Q315 1944 365.50 1938.50Q416 1933 455 1933Q489 1933 536 1938.50Q583 1944 618 1946L618 1593Q837 1970 1225 1970Q1430 1970 1595.50 1862.50Q1761 1755 1823 1565Q2063 1970 2466 1970Q2826 1970 2975.50 1771Q3125 1572 3125 1171L3125-12Q3093-10 3040.50-5Q2988 0 2961 0Q2932 0 2877-5Q2822-10 2798-12L2798 1077Q2798 1405 2707 1581Q2616 1757 2343 1757Q2065 1757 1968.50 1568.50Q1872 1380 1872 1094L1872-12Q1836-10 1784.50-5Q1733 0 1708 0Q1680 0 1624-5Q1568-10 1544-12L1544 1188Q1544 1479 1439.50 1618Q1335 1757 1110 1757Q821 1757 719.50 1601.50Q618 1446 618 1180L618-12Q583-10 531.50-5Q480 0 455 0Q425 0 370-5Q315-10 291-12Z"  horiz-adv-x="3412" vert-adv-y="4096"  />

      
      <glyph glyph-name="uni6e" unicode="&#x6e;" d="M315-12L315 1946Q342 1944 391.50 1938.50Q441 1933 479 1933Q513 1933 561.50 1938.50Q610 1944 643 1946L643 1573Q870 1970 1303 1970Q1654 1970 1808 1776.50Q1962 1583 1962 1171L1962-12Q1930-10 1876.50-5Q1823 0 1798 0Q1769 0 1715-5Q1661-10 1634-12L1634 1077Q1634 1407 1540 1582Q1446 1757 1180 1757Q876 1757 759.50 1552Q643 1347 643 938L643-12Q611-10 557.50-5Q504 0 479 0Q450 0 396-5Q342-10 315-12Z"  horiz-adv-x="2277" vert-adv-y="4096"  />

      
      <glyph glyph-name="uni6f" unicode="&#x6f;" d="M143 983Q143 1272 279 1497Q415 1722 654 1846Q893 1970 1184 1970Q1463 1970 1679 1847Q1895 1724 2014.50 1497.50Q2134 1271 2134 971Q2134 774 2068.50 591Q2003 408 1871.50 263.50Q1740 119 1548 37Q1356-45 1110-45Q912-45 734.50 25Q557 95 425 228Q293 361 218 553Q143 745 143 983M1180 1843Q936 1843 784 1710Q632 1577 568 1369Q504 1161 504 922Q504 577 662 329.50Q820 82 1143 82Q1364 82 1506 232.50Q1648 383 1711 594.50Q1774 806 1774 991Q1774 1200 1716 1393.50Q1658 1587 1525 1715Q1392 1843 1180 1843Z"  horiz-adv-x="2277" vert-adv-y="4096"  />

      
      <glyph glyph-name="uni70" unicode="&#x70;" d="M598 913Q598 565 750 346Q902 127 1200 127Q1396 127 1522.50 246Q1649 365 1705 564.50Q1761 764 1761 1016Q1761 1364 1630.50 1597.50Q1500 1831 1196 1831Q875 1831 736.50 1550.50Q598 1270 598 913M598 348L598-1061Q566-1059 512.50-1054Q459-1049 434-1049Q405-1049 351-1054Q297-1059 270-1061L270 1946Q297 1944 346.50 1938.50Q396 1933 434 1933Q468 1933 516.50 1938.50Q565 1944 598 1946L598 1532L606 1532Q665 1651 728 1737Q791 1823 932.50 1896.50Q1074 1970 1298 1970Q1552 1970 1739.50 1841Q1927 1712 2024.50 1496.50Q2122 1281 2122 1032Q2122 703 2010.50 458Q1899 213 1698 84Q1497-45 1237-45Q815-45 606 348L598 348Z"  horiz-adv-x="2277" vert-adv-y="4096"  />

      
      <glyph glyph-name="uni71" unicode="&#x71;" d="M1667 918Q1665 1163 1597.50 1371.50Q1530 1580 1396 1705.50Q1262 1831 1073 1831Q508 1831 508 1024Q508 127 1118 127Q1292 127 1415.50 237.50Q1539 348 1602 529Q1665 710 1667 918M1667 1524L1667 1946Q1691 1944 1742.50 1938.50Q1794 1933 1831 1933Q1865 1933 1912 1938.50Q1959 1944 1995 1946L1995-1061Q1959-1059 1907.50-1054Q1856-1049 1831-1049Q1803-1049 1747-1054Q1691-1059 1667-1061L1667 340L1659 340Q1469-45 1028-45Q749-45 549.50 92Q350 229 248.50 461Q147 693 147 967Q147 1250 242 1479.50Q337 1709 522.50 1839.50Q708 1970 967 1970Q1257 1970 1429.50 1824Q1602 1678 1659 1524L1667 1524Z"  horiz-adv-x="2277" vert-adv-y="4096"  />

      
      <glyph glyph-name="uni72" unicode="&#x72;" d="M324-12L324 1946Q348 1944 398.50 1938.50Q449 1933 487 1933Q523 1933 570.50 1938.50Q618 1944 651 1946L651 1536L672 1585Q916 1970 1188 1970Q1269 1970 1315 1950L1257 1606Q1241 1610 1174.50 1640.50Q1108 1671 1065 1671Q893 1671 803 1569Q704 1456 677.50 1348.50Q651 1241 651 1049L651-12Q619-10 566.50-5Q514 0 487 0Q458 0 403-5Q348-10 324-12Z"  horiz-adv-x="1364" vert-adv-y="4096"  />

      
      <glyph glyph-name="uni73" unicode="&#x73;" d="M258 385L291 385Q369 257 497 169.50Q625 82 762 82Q862 82 955 130Q1048 178 1105.50 264.50Q1163 351 1163 455Q1163 639 1050 707.50Q937 776 691.50 846Q446 916 321.50 1020Q197 1124 197 1364Q197 1648 386 1809Q575 1970 864 1970Q1011 1970 1137 1937Q1263 1904 1327 1864Q1265 1721 1229 1573L1192 1573Q1152 1678 1051.50 1760.50Q951 1843 844 1843Q683 1843 577 1753.50Q471 1664 471 1503Q471 1330 585 1257.50Q699 1185 943.50 1106Q1188 1027 1313 925Q1438 823 1438 602Q1438 393 1328.50 247Q1219 101 1046 28Q873-45 684-45Q390-45 172 86Q245 303 258 385Z"  horiz-adv-x="1593" vert-adv-y="4096"  />

      
      <glyph glyph-name="uni74" unicode="&#x74;" d="M295 2351L623 2478L623 1946L1057 1946Q1049 1888 1049 1864Q1049 1830 1057 1790L623 1790L623 762L623 614Q623 382 681.50 240Q740 98 926 98Q963 98 1110 127L1110 29Q910-45 766-45Q608-45 506 10.50Q404 66 349.50 206.50Q295 347 295 598L295 1790L41 1790Q49 1819 49 1868Q49 1921 41 1946L295 1946L295 2351Z"  horiz-adv-x="1139" vert-adv-y="4096"  />

      
      <glyph glyph-name="uni75" unicode="&#x75;" d="M1937 1946L1937-12Q1902-10 1850.50-5Q1799 0 1774 0Q1744 0 1689-5Q1634-10 1610-12L1610 340Q1514 154 1344 54.50Q1174-45 958-45Q615-45 449 143Q283 331 283 741L283 1946Q307 1944 357.50 1938.50Q408 1933 446 1933Q482 1933 529.50 1938.50Q577 1944 610 1946L610 840Q610 502 725.50 329Q841 156 1106 156Q1388 156 1499 349Q1610 542 1610 815L1610 1946Q1634 1944 1684.50 1938.50Q1735 1933 1774 1933Q1808 1933 1855 1938.50Q1902 1944 1937 1946Z"  horiz-adv-x="2277" vert-adv-y="4096"  />

      
      <glyph glyph-name="uni76" unicode="&#x76;" d="M1380 1061L1708 1946Q1726 1944 1767.50 1938.50Q1809 1933 1839 1933Q1865 1933 1903 1938.50Q1941 1944 1970 1946Q1881 1761 1755.50 1485Q1630 1209 1517 948.50Q1404 688 1305 442Q1206 196 1135-12Q1108-10 1068.50-5Q1029 0 1012 0Q989 0 946-5Q903-10 885-12Q800 217 654 582.50Q508 948 349 1328Q190 1708 82 1946Q104 1945 163.50 1939Q223 1933 266 1933Q304 1933 355.50 1938.50Q407 1944 446 1946Q634 1323 1057 369Q1070 388 1097.50 425Q1125 462 1135 483L1380 1061Z"  horiz-adv-x="2048" vert-adv-y="4096"  />

      
      <glyph glyph-name="uni77" unicode="&#x77;" d="M3121 1946Q3028 1759 2883.50 1441Q2739 1123 2573 716.50Q2407 310 2298-12Q2272-10 2237-5Q2202 0 2187 0Q2168 0 2132-5Q2096-10 2077-12Q2020 197 1933 465Q1846 733 1751 1000.50Q1656 1268 1573 1475Q1506 1345 1413.50 1115.50Q1321 886 1219.50 600Q1118 314 1016-12Q994-10 958.50-5Q923 0 905 0Q886 0 848-5Q810-10 795-12Q686 324 557 687.50Q428 1051 306.50 1365Q185 1679 70 1946Q96 1944 152 1938.50Q208 1933 250 1933Q287 1933 339 1938.50Q391 1944 430 1946Q496 1713 583.50 1440.50Q671 1168 759.50 921Q848 674 950 426Q1074 692 1248 1155Q1422 1618 1524 1946Q1536 1945 1570.50 1939Q1605 1933 1630 1933Q1651 1933 1681.50 1938.50Q1712 1944 1737 1946Q1817 1633 1973 1178.50Q2129 724 2261 422Q2758 1604 2863 1946Q2877 1945 2919 1939Q2961 1933 2994 1933Q3020 1933 3056 1938.50Q3092 1944 3121 1946Z"  horiz-adv-x="3187" vert-adv-y="4096"  />

      
      <glyph glyph-name="uni78" unicode="&#x78;" d="M864 954L119 1946Q148 1944 213.50 1938.50Q279 1933 328 1933Q372 1933 434 1938.50Q496 1944 537 1946Q627 1787 788.50 1555.50Q950 1324 1065 1184L1294 1479L1638 1946Q1658 1944 1702 1938.50Q1746 1933 1778 1933Q1810 1933 1851.50 1938.50Q1893 1944 1921 1946Q1528 1527 1159 1065L1925 29L1925-12Q1883-10 1822.50-5Q1762 0 1733 0Q1699 0 1635-5Q1571-10 1540-12Q1286 411 963 831Q585 333 373-12Q348-10 309-5Q270 0 250 0Q227 0 186-5Q145-10 127-12L127 29Q634 661 864 954Z"  horiz-adv-x="2048" vert-adv-y="4096"  />

      
      <glyph glyph-name="uni79" unicode="&#x79;" d="M934 4L106 1946Q137 1944 196.50 1938.50Q256 1933 303 1933Q343 1933 398.50 1938.50Q454 1944 496 1946Q726 1233 1106 426Q1191 601 1304.50 871.50Q1418 1142 1521 1410.50Q1624 1679 1720 1946Q1740 1944 1781.50 1938.50Q1823 1933 1855 1933Q1881 1933 1919 1938.50Q1957 1944 1987 1946Q1830 1597 1599.50 1089.50Q1369 582 1235 282.50Q1101-17 950-371Q799-725 664-1061Q633-1059 589-1054Q545-1049 524-1049Q499-1049 452-1054Q405-1059 385-1061Q839-175 934 4Z"  horiz-adv-x="2048" vert-adv-y="4096"  />

      
      <glyph glyph-name="uni7a" unicode="&#x7a;" d="M1868 1888L594 164L594 152Q968 152 1839 213Q1838 199 1835 179Q1832 159 1829.50 138Q1827 117 1827 106Q1827 94 1829 73.50Q1831 53 1834.50 31Q1838 9 1839 0L90 0L90 37Q287 279 520.50 584.50Q754 890 961 1169Q1168 1448 1397 1765L1397 1778Q1235 1778 1061 1769.50Q887 1761 709.50 1748Q532 1735 299 1716Q311 1803 311 1819Q311 1833 306 1866.50Q301 1900 299 1925L1868 1925L1868 1888Z"  horiz-adv-x="2048" vert-adv-y="4096"  />

      
      <glyph glyph-name="uni7b" unicode="&#x7b;" d="M844 717L844 37Q844-184 921-310Q998-436 1184-475Q938-475 802-421.50Q666-368 607.50-236.50Q549-105 549 139L549 807Q549 1030 490.50 1132Q432 1234 238 1290Q365 1328 431 1385.50Q497 1443 523 1531Q549 1619 549 1761L549 2490Q549 2729 620 2854Q691 2979 826 3021.50Q961 3064 1184 3064Q991 3016 917.50 2895.50Q844 2775 844 2548L844 1823Q844 1583 778.50 1462.50Q713 1342 512 1290Q652 1253 725 1178.50Q798 1104 821 996.50Q844 889 844 717Z"  horiz-adv-x="1364" vert-adv-y="4096"  />

      
      <glyph glyph-name="uni7c" unicode="&#x7c;" d="M0 0L549 0L549 3064L811 3064L811 0L0 0Z"  horiz-adv-x="1364" vert-adv-y="4096"  />

      
      <glyph glyph-name="uni7d" unicode="&#x7d;" d="M520 33L520 717Q520 972 583.50 1102Q647 1232 852 1286Q653 1338 586.50 1459Q520 1580 520 1823L520 2548Q520 2774 446.50 2893.50Q373 3013 180 3064Q404 3064 538.50 3021Q673 2978 744 2852Q815 2726 815 2486L815 1757Q815 1550 879 1444.50Q943 1339 1126 1286Q933 1233 874 1131.50Q815 1030 815 807L815 139Q815-107 756.50-238Q698-369 562-422Q426-475 180-475Q366-436 443-312Q520-188 520 33Z"  horiz-adv-x="1364" vert-adv-y="4096"  />

      
      <glyph glyph-name="uni7e" unicode="&#x7e;" d="M2130 1389L2273 1225Q2173 1036 2026 907Q1879 778 1696 778Q1631 778 1534.50 807Q1438 836 1328.50 881Q1219 926 1143 958Q995 1020 930.50 1042.50Q866 1065 786 1065Q640 1065 551.50 970Q463 875 352 688L209 852Q286 990 364.50 1092Q443 1194 550 1260.50Q657 1327 791 1327Q887 1327 1005 1287Q1123 1247 1291 1173Q1459 1099 1544 1067.50Q1629 1036 1700 1036Q1829 1036 1945 1143Q2061 1250 2130 1389Z"  horiz-adv-x="2482" vert-adv-y="4096"  />

      
      <glyph glyph-name="uni2026" unicode="&#x2026;" d="M438 201Q438 301 513 373.50Q588 446 688 446Q787 446 858.50 372.50Q930 299 930 201Q930 101 858 28Q786-45 688-45Q587-45 512.50 28Q438 101 438 201M1802 201Q1802 301 1877 373.50Q1952 446 2052 446Q2151 446 2222.50 372.50Q2294 299 2294 201Q2294 101 2222 28Q2150-45 2052-45Q1951-45 1876.50 28Q1802 101 1802 201M3166 201Q3166 301 3241 373.50Q3316 446 3416 446Q3515 446 3586.50 372.50Q3658 299 3658 201Q3658 101 3586 28Q3514-45 3416-45Q3315-45 3240.50 28Q3166 101 3166 201Z"  horiz-adv-x="4096" vert-adv-y="4096"  />

      
      <glyph glyph-name="uni2020" unicode="&#x2020;" d="M881-12L881 1618Q702 1618 168 1597Q170 1617 175 1662Q180 1707 180 1733Q180 1752 175 1793.50Q170 1835 168 1864Q742 1843 881 1843L881 2789Q894 2788 922.50 2785Q951 2782 979 2779.50Q1007 2777 1024 2777Q1039 2777 1066.50 2779.50Q1094 2782 1121.50 2785Q1149 2788 1167 2789L1167 1843Q1336 1843 1880 1864Q1879 1844 1876 1821Q1873 1798 1870.50 1772Q1868 1746 1868 1733Q1868 1716 1870 1690.50Q1872 1665 1875.50 1637.50Q1879 1610 1880 1597Q1336 1618 1167 1618L1167-12Q1136-10 1090.50-5Q1045 0 1024 0Q999 0 950-5Q901-10 881-12Z"  horiz-adv-x="2048" vert-adv-y="4096"  />

      
      <glyph glyph-name="uni90" unicode="&#x90;" d="M643 520Q767 654 911 820.50Q1055 987 1208.50 1176Q1362 1365 1514.50 1564Q1667 1763 1798 1946L1962 1946L1962-12Q1934-10 1879-5Q1824 0 1798 0Q1769 0 1715-5Q1661-10 1634-12L1634 1413Q1409 1160 1214 930Q1019 700 823.50 452.50Q628 205 479-12L315-12L315 1946Q365 1933 479 1933Q586 1933 643 1946L643 520Z"  horiz-adv-x="2277" vert-adv-y="4096"  />

      
      <glyph glyph-name="uni2018" unicode="&#x2018;" d="M926 2822L639 1913Q607 1810 568 1744.50Q529 1679 451 1679Q384 1679 333.50 1721.50Q283 1764 283 1831Q283 1889 300.50 1923Q318 1957 373 2048L856 2851L926 2822Z"  horiz-adv-x="1139" vert-adv-y="4096"  />

      
      <glyph glyph-name="uni2019" unicode="&#x2019;" d="M213 1708L500 2617Q534 2725 572.50 2788Q611 2851 688 2851Q757 2851 806.50 2809.50Q856 2768 856 2699Q856 2641 834 2598Q812 2555 766 2482L283 1679L213 1708Z"  horiz-adv-x="1139" vert-adv-y="4096"  />

      
      <glyph glyph-name="uni201C" unicode="&#x201C;" d="M1606 2822L1319 1913Q1287 1810 1248 1744.50Q1209 1679 1130 1679Q1063 1679 1013 1721Q963 1763 963 1831Q963 1889 980.50 1923Q998 1957 1053 2048L1536 2851L1606 2822M909 2822L623 1913Q591 1810 552 1744.50Q513 1679 434 1679Q367 1679 316.50 1721.50Q266 1764 266 1831Q266 1889 283.50 1923Q301 1957 356 2048L840 2851L909 2822Z"  horiz-adv-x="1819" vert-adv-y="4096"  />

      
      <glyph glyph-name="uni201D" unicode="&#x201D;" d="M213 1708L500 2617Q534 2725 572.50 2788Q611 2851 688 2851Q757 2851 806.50 2809.50Q856 2768 856 2699Q856 2641 834 2598Q812 2555 766 2482L283 1679L213 1708M909 1708L1196 2617Q1234 2730 1270 2790.50Q1306 2851 1384 2851Q1453 2851 1502.50 2809.50Q1552 2768 1552 2699Q1552 2641 1530 2598Q1508 2555 1462 2482L979 1679L909 1708Z"  horiz-adv-x="1819" vert-adv-y="4096"  />

      
      <glyph glyph-name="uni2013" unicode="&#x2013;" d="M2068 807L0 807L0 1004L2068 1004L2068 807Z"  horiz-adv-x="2048" vert-adv-y="4096"  />

      
      <glyph glyph-name="uni2014" unicode="&#x2014;" d="M0 807L0 1004L4096 1004L4096 807L0 807Z"  horiz-adv-x="4096" vert-adv-y="4096"  />

      
      <glyph glyph-name="uni2122" unicode="&#x2122;" d="M3437 2789L3486 2789Q3610 1640 3686 1126Q3660 1128 3628 1133.50Q3596 1139 3572 1139Q3545 1139 3509 1133.50Q3473 1128 3457 1126Q3377 2077 3330 2380Q3165 2082 3057 1882Q2949 1682 2856.50 1497Q2764 1312 2695 1155L2671 1155L2535 1430Q2481 1545 2418.50 1666Q2356 1787 2304 1886Q2252 1985 2179 2123.50Q2106 2262 2044 2380Q1932 1384 1925 1126Q1901 1129 1882.50 1132.50Q1864 1136 1839 1139Q1819 1139 1793.50 1133.50Q1768 1128 1753 1126Q1788 1347 1840.50 1706.50Q1893 2066 1934.50 2368Q1976 2670 1987 2789L2048 2789Q2320 2261 2442 2031.50Q2564 1802 2736 1516Q2828 1678 2966.50 1932.50Q3105 2187 3214.50 2389Q3324 2591 3437 2789M950 2675L950 1126Q929 1128 898 1133.50Q867 1139 844 1139Q819 1139 785 1133.50Q751 1128 737 1126L737 2675Q541 2675 205 2646L205 2789L1458 2789L1458 2646Q1161 2675 950 2675Z"  horiz-adv-x="3891" vert-adv-y="4096"  />

      
      <glyph glyph-name="unia4" unicode="&#xa4;" d="M131 578L352 799Q123 1091 123 1421Q123 1794 340 2044L119 2269L299 2449L520 2224Q789 2445 1151 2445Q1493 2445 1757 2228L1974 2445L2150 2269L1933 2052Q2159 1785 2159 1430Q2159 1076 1925 803L2142 582L1966 406L1749 623Q1493 410 1147 410Q790 410 528 623L311 406L131 578M1151 2195Q939 2195 760 2093Q581 1991 477 1813.50Q373 1636 373 1421Q373 1210 477.50 1035Q582 860 760.50 759.50Q939 659 1147 659Q1354 659 1530 764Q1706 869 1807.50 1047Q1909 1225 1909 1430Q1909 1584 1850 1723.50Q1791 1863 1687 1968.50Q1583 2074 1443.50 2134.50Q1304 2195 1151 2195Z"  horiz-adv-x="2277" vert-adv-y="4096"  />

      
      <glyph glyph-name="unia5" unicode="&#xa5;" d="M659 1749L53 2810Q106 2807 162 2802.50Q218 2798 266 2798Q289 2798 330 2800.50Q371 2803 412 2806Q453 2809 479 2810Q538 2674 697.50 2357.50Q857 2041 999.50 1775Q1142 1509 1200 1417Q1257 1489 1403.50 1763Q1550 2037 1700.50 2339.50Q1851 2642 1929 2810Q1945 2809 1973.50 2805.50Q2002 2802 2030 2800Q2058 2798 2077 2798Q2093 2798 2121 2800Q2149 2802 2178.50 2805.50Q2208 2809 2224 2810Q2166 2717 2077.50 2576.50Q1989 2436 1954 2380L1593 1749L2015 1749L2015 1548L1479 1548Q1440 1477 1408 1416Q1376 1355 1351 1303Q1326 1251 1323 1245L1323 1098L2015 1098L2015 897L1323 897L1323-12Q1290-10 1235-5Q1180 0 1155 0Q1127 0 1069-5Q1011-10 987-12L987 897L238 897L238 1098L987 1098L987 1167L766 1548L238 1548L238 1749L659 1749Z"  horiz-adv-x="2277" vert-adv-y="4096"  />

      
      <glyph glyph-name="unia6" unicode="&#xa6;" d="M0 0L549 0L549 1147L811 1147L811 0L0 0M549 3064L811 3064L811 1917L549 1917L549 3064Z"  horiz-adv-x="1364" vert-adv-y="4096"  />

      
      <glyph glyph-name="unia7" unicode="&#xa7;" d="M1135 537L918 631Q696 725 564.50 800Q433 875 341.50 1003Q250 1131 250 1327Q250 1601 524 1819Q414 2016 414 2171Q414 2373 508.50 2528.50Q603 2684 767.50 2767.50Q932 2851 1135 2851Q1466 2851 1683 2621Q1608 2529 1561 2384L1524 2384Q1465 2534 1350 2625Q1235 2716 1102 2716Q910 2716 791 2626Q719 2572 673 2487Q627 2402 627 2314Q627 2051 922 1921L1434 1696Q1794 1532 1794 1176Q1794 907 1561 651Q1716 484 1716 324Q1716 83 1601.50-101Q1487-285 1290.50-386Q1094-487 856-487Q578-487 279-319Q328-120 328 29L365 29Q570-340 983-340Q1119-340 1239-266.50Q1359-193 1431-84.50Q1503 24 1503 115Q1503 282 1411 370Q1319 458 1135 537M971 963L1274 836L1499 713Q1614 895 1614 1008Q1614 1256 1274 1409L848 1602Q643 1693 590 1757Q434 1616 434 1462Q434 1347 500 1262Q576 1166 681 1105.50Q786 1045 971 963Z"  horiz-adv-x="2048" vert-adv-y="4096"  />

      
      <glyph glyph-name="unia8" unicode="&#xa8;" d="M725 2597L725 1569L1360 1569Q1434 1569 1565 1578.50Q1696 1588 1724 1589Q1723 1580 1719.50 1558Q1716 1536 1714 1515.50Q1712 1495 1712 1483Q1712 1473 1714.50 1450Q1717 1427 1720 1406Q1723 1385 1724 1368Q1665 1370 1549.50 1379.50Q1434 1389 1360 1389L725 1389L725 193Q976 193 1466 209Q1655 215 1843 246Q1842 231 1839 207.50Q1836 184 1833.50 160.50Q1831 137 1831 123Q1831 95 1835.50 63Q1840 31 1843 0L365 0L365 2789L1819 2789Q1817 2764 1811.50 2728.50Q1806 2693 1806 2666Q1806 2640 1811.50 2602.50Q1817 2565 1819 2544Q1671 2573 1450 2589L1040 2597L725 2597M1544 3101Q1472 3101 1414 3159Q1356 3217 1356 3289Q1356 3362 1412 3420Q1468 3478 1544 3478Q1621 3478 1677 3421Q1733 3364 1733 3289Q1733 3216 1674.50 3158.50Q1616 3101 1544 3101M741 3101Q669 3101 611 3159Q553 3217 553 3289Q553 3362 609 3420Q665 3478 741 3478Q818 3478 874 3422Q930 3366 930 3289Q930 3212 872.50 3156.50Q815 3101 741 3101Z"  horiz-adv-x="2048" vert-adv-y="4096"  />

      
      <glyph glyph-name="unia9" unicode="&#xa9;" d="M1532-61Q1139-61 805 134.50Q471 330 276.50 664.50Q82 999 82 1393Q82 1786 276.50 2122Q471 2458 804.50 2654.50Q1138 2851 1532 2851Q1927 2851 2264 2655.50Q2601 2460 2797.50 2124.50Q2994 1789 2994 1393Q2994 1000 2797.50 664.50Q2601 329 2264 134Q1927-61 1532-61M1532 143Q1863 143 2148 313.50Q2433 484 2601 773Q2769 1062 2769 1393Q2769 1643 2673.50 1871Q2578 2099 2405.50 2274.50Q2233 2450 2007 2548Q1781 2646 1532 2646Q1202 2646 919.50 2474.50Q637 2303 472 2013.50Q307 1724 307 1393Q307 1061 472.50 772.50Q638 484 920.50 313.50Q1203 143 1532 143M2101 868L2077 713Q1876 582 1540 582Q1275 582 1081 682Q887 782 783.50 968Q680 1154 680 1401Q680 1650 800.50 1833.50Q921 2017 1130 2112.50Q1339 2208 1597 2208Q1871 2208 2122 2101Q2093 2034 2073 1913L2056 1913Q2020 1966 1887.50 2025.50Q1755 2085 1589 2085Q1395 2085 1252 1994.50Q1109 1904 1033.50 1746Q958 1588 958 1393Q958 1181 1040 1024Q1122 867 1262.50 786Q1403 705 1573 705Q1738 705 1856 751Q1974 797 2101 868Z"  horiz-adv-x="3072" vert-adv-y="4096"  />

      
      <glyph glyph-name="uniab" unicode="&#xab;" d="M889 139L397 918L913 1675Q979 1595 1065 1569L606 922L1044 246Q946 214 889 139M1475 139L983 918L1499 1675Q1565 1595 1651 1569L1192 922L1630 246Q1532 214 1475 139Z"  horiz-adv-x="2048" vert-adv-y="4096"  />

      
      <glyph glyph-name="uniac" unicode="&#xac;" d="M2011 463L2011 1307L209 1307L209 1569L2273 1569L2273 463L2011 463Z"  horiz-adv-x="2482" vert-adv-y="4096"  />

      
      <glyph glyph-name="uniae" unicode="&#xae;" d="M1540-61Q1145-61 808 134.50Q471 330 274.50 665.50Q78 1001 78 1397Q78 1790 274.50 2125.50Q471 2461 808 2656Q1145 2851 1540 2851Q1933 2851 2267 2655.50Q2601 2460 2795.50 2125.50Q2990 1791 2990 1397Q2990 1000 2796 665.50Q2602 331 2267.50 135Q1933-61 1540-61M1540 143Q1871 143 2153 314Q2435 485 2600 774.50Q2765 1064 2765 1397Q2765 1728 2599.50 2017Q2434 2306 2152 2476Q1870 2646 1540 2646Q1210 2646 924.50 2475.50Q639 2305 471 2016.50Q303 1728 303 1397Q303 1064 470.50 774.50Q638 485 923.50 314Q1209 143 1540 143M1212 1376L1212 614Q1194 616 1161 621.50Q1128 627 1106 627Q1081 627 1047 621.50Q1013 616 999 614L999 2179L1516 2179Q2056 2179 2056 1831Q2056 1707 1985.50 1616Q1915 1525 1802 1472.50Q1689 1420 1556 1397L2060 799L2175 672L2220 614Q2193 616 2152 621.50Q2111 627 2081 627Q2050 627 2006 621.50Q1962 616 1942 614Q1902 666 1856 727.50Q1810 789 1790 815L1499 1163L1307 1376L1212 1376M1212 2056L1212 1499L1479 1499Q1646 1499 1744.50 1583.50Q1843 1668 1843 1802Q1843 2044 1569 2056L1212 2056Z"  horiz-adv-x="3072" vert-adv-y="4096"  />

      
      <glyph glyph-name="unib0" unicode="&#xb0;" d="M1434 2126Q1434 1960 1350.50 1818Q1267 1676 1125.50 1593.50Q984 1511 819 1511Q651 1511 510.50 1593.50Q370 1676 287.50 1817Q205 1958 205 2126Q205 2292 287.50 2433Q370 2574 511.50 2657Q653 2740 819 2740Q983 2740 1125 2657Q1267 2574 1350.50 2432Q1434 2290 1434 2126M1270 2126Q1270 2246 1208.50 2350Q1147 2454 1043 2515Q939 2576 815 2576Q631 2576 500 2444Q369 2312 369 2126Q369 1938 500.50 1806.50Q632 1675 819 1675Q941 1675 1044 1735.50Q1147 1796 1208.50 1900Q1270 2004 1270 2126Z"  horiz-adv-x="1638" vert-adv-y="4096"  />

      
      <glyph glyph-name="unib1" unicode="&#xb1;" d="M1110 1417L1110 2068L1372 2068L1372 1417L2273 1417L2273 1155L1372 1155L1372 492L1110 492L1110 1155L209 1155L209 1417L1110 1417M2273 0L209 0L209 262L2273 262L2273 0Z"  horiz-adv-x="2482" vert-adv-y="4096"  />

      
      <glyph glyph-name="unib4" unicode="&#xb4;" d="M1167 2580L524 2179L385 2179L897 2691Q916 2710 949.50 2742.50Q983 2775 999 2793Q1015 2803 1035.50 2822Q1056 2841 1072.50 2852Q1089 2863 1110 2867Q1246 2867 1274 2781Q1286 2757 1286 2720Q1286 2687 1270 2671Q1261 2652 1245 2636.50Q1229 2621 1205 2605Q1181 2589 1167 2580Z"  horiz-adv-x="1364" vert-adv-y="4096"  />

      
      <glyph glyph-name="unib5" unicode="&#xb5;" d="M1610 815L1610 1946Q1634 1944 1684.50 1938.50Q1735 1933 1774 1933Q1808 1933 1855 1938.50Q1902 1944 1937 1946L1937-12Q1902-10 1850.50-5Q1799 0 1774 0Q1744 0 1689-5Q1634-10 1610-12L1610 340L1602 340Q1512 155 1343.50 55Q1175-45 958-45Q759-45 610 66L610-1061Q578-1059 525.50-1054Q473-1049 446-1049Q417-1049 362-1054Q307-1059 283-1061L283 1946Q307 1944 357.50 1938.50Q408 1933 446 1933Q482 1933 529.50 1938.50Q577 1944 610 1946L610 840Q610 502 725.50 329Q841 156 1106 156Q1388 156 1499 349Q1610 542 1610 815Z"  horiz-adv-x="2277" vert-adv-y="4096"  />

      
      <glyph glyph-name="unib6" unicode="&#xb6;" d="M2036 2658L1675 2658L1675-418Q1652-416 1610-411Q1568-406 1548-406Q1525-406 1481-411Q1437-416 1417-418L1417 1327L1270 1315Q907 1315 691 1507Q475 1699 475 2064Q475 2264 557.50 2437.50Q640 2611 803 2695Q987 2789 1384 2789L1516 2789L2294 2789L2294-418Q2271-416 2229-411Q2187-406 2167-406Q2144-406 2100-411Q2056-416 2036-418L2036 2658M1028 2179L1028 1913Q1028 1434 1360 1434L1417 1438L1417 2658Q1182 2658 1105 2539.50Q1028 2421 1028 2179Z"  horiz-adv-x="3277" vert-adv-y="4096"  />

      
      <glyph glyph-name="unib7" unicode="&#xb7;" d="M324 942Q324 1041 399 1114.50Q474 1188 573 1188Q672 1188 743.50 1114.50Q815 1041 815 942Q815 841 743.50 768.50Q672 696 573 696Q472 696 398 769Q324 842 324 942Z"  horiz-adv-x="1139" vert-adv-y="4096"  />

      
      <glyph glyph-name="unib8" unicode="&#xb8;" d="M1425 2257Q1353 2257 1295 2315Q1237 2373 1237 2445Q1237 2519 1292.50 2576.50Q1348 2634 1425 2634Q1503 2634 1558.50 2577.50Q1614 2521 1614 2445Q1614 2371 1556 2314Q1498 2257 1425 2257M623 2257Q550 2257 492 2315Q434 2373 434 2445Q434 2519 489.50 2576.50Q545 2634 623 2634Q701 2634 756 2579Q811 2524 811 2445Q811 2368 753.50 2312.50Q696 2257 623 2257M1815 410L1810 197Q1474-45 1106-45Q824-45 604 75.50Q384 196 261.50 424Q139 652 139 963Q139 1250 248 1479.50Q357 1709 569 1839.50Q781 1970 1077 1970Q1302 1970 1493 1868.50Q1684 1767 1798.50 1561Q1913 1355 1913 1057Q1913 1043 1911 1013Q1909 983 1909 967Q1491 979 1077 979L500 979Q496 950 496 893Q496 678 578.50 504Q661 330 822.50 228.50Q984 127 1208 127Q1521 127 1815 410M500 1130L1589 1130Q1573 1843 1077 1843Q896 1843 769.50 1741Q643 1639 578 1476.50Q513 1314 500 1130Z"  horiz-adv-x="2048" vert-adv-y="4096"  />

      
      <glyph glyph-name="unib9" unicode="&#xb9;" d="M49 2261Q49 2432 137.50 2567Q226 2702 380.50 2776.50Q535 2851 725 2851Q1012 2851 1188 2671Q1343 2511 1343 2253Q1343 2076 1249 1921Q1064 1642 680 1642Q542 1642 406 1696Q292 1742 201 1835Q49 1992 49 2261M725 2777Q492 2777 387.50 2613.50Q283 2450 283 2224Q283 2016 386 1866Q489 1716 700 1716Q845 1716 936.50 1807Q1028 1898 1069 2025.50Q1110 2153 1110 2265Q1110 2467 1018 2622Q926 2777 725 2777M102 1405L1290 1405L1290 1282L102 1282L102 1405Z"  horiz-adv-x="1393" vert-adv-y="4096"  />

      
      <glyph glyph-name="unibb" unicode="&#xbb;" d="M1159 1675L1651 897L1135 139Q1070 218 983 246L1442 893L1004 1569Q1100 1598 1159 1675M573 1675L1065 897L549 139Q484 218 397 246L856 893L418 1569Q514 1598 573 1675Z"  horiz-adv-x="2048" vert-adv-y="4096"  />

      
      <glyph glyph-name="unic0" unicode="&#xc0;" d="M1397 2851L2626-12Q2585-10 2515.50-5Q2446 0 2413 0Q2373 0 2300-5Q2227-10 2195-12Q2143 139 2068.50 339.50Q1994 540 1919 726Q1844 912 1765 1094L725 1094Q417 318 319-12Q286-10 238.50-5Q191 0 168 0Q140 0 90.50-5.50Q41-11 25-12L1303 2851L1397 2851M1704 1266L1249 2314L803 1266L1704 1266Z"  horiz-adv-x="2654" vert-adv-y="4096"  />

      
      <glyph glyph-name="uni0410" unicode="&#x0410;" d="M1397 2851L2626-12Q2585-10 2515.50-5Q2446 0 2413 0Q2373 0 2300-5Q2227-10 2195-12Q2143 139 2068.50 339.50Q1994 540 1919 726Q1844 912 1765 1094L725 1094Q417 318 319-12Q286-10 238.50-5Q191 0 168 0Q140 0 90.50-5.50Q41-11 25-12L1303 2851L1397 2851M1704 1266L1249 2314L803 1266L1704 1266Z"  horiz-adv-x="2654" vert-adv-y="4096"  />

      
      <glyph glyph-name="unic1" unicode="&#xc1;" d="M733 1405L733 168L1143 168Q1342 168 1499 257Q1656 346 1741.50 497Q1827 648 1827 831Q1827 1052 1693 1216.50Q1559 1381 1327 1401Q1257 1409 1077 1409Q1002 1409 882 1407Q762 1405 733 1405M373 0L373 2789L2032 2789Q2019 2744 2019 2666Q2019 2596 2032 2544Q1801 2589 1663 2589L1171 2597L733 2597L733 1565L1110 1565Q1701 1565 1954.50 1396.50Q2208 1228 2208 852Q2208 608 2094.50 421.50Q1981 235 1774 128Q1567 21 1290 4Q1106 0 373 0Z"  horiz-adv-x="2429" vert-adv-y="4096"  />

      
      <glyph glyph-name="uni0411" unicode="&#x0411;" d="M733 1405L733 168L1143 168Q1342 168 1499 257Q1656 346 1741.50 497Q1827 648 1827 831Q1827 1052 1693 1216.50Q1559 1381 1327 1401Q1257 1409 1077 1409Q1002 1409 882 1407Q762 1405 733 1405M373 0L373 2789L2032 2789Q2019 2744 2019 2666Q2019 2596 2032 2544Q1801 2589 1663 2589L1171 2597L733 2597L733 1565L1110 1565Q1701 1565 1954.50 1396.50Q2208 1228 2208 852Q2208 608 2094.50 421.50Q1981 235 1774 128Q1567 21 1290 4Q1106 0 373 0Z"  horiz-adv-x="2429" vert-adv-y="4096"  />

      
      <glyph glyph-name="unic2" unicode="&#xc2;" d="M729 2638L729 1561L877 1561Q1248 1561 1434 1642Q1587 1711 1668 1841Q1749 1971 1749 2138Q1749 2417 1573.50 2527.50Q1398 2638 1053 2638L729 2638M729 1401L729 152L1139 152Q1337 152 1494 232.50Q1651 313 1739 458.50Q1827 604 1827 786Q1827 1127 1606.50 1264Q1386 1401 979 1401L729 1401M975 0L369 0L369 2789L1192 2789Q1500 2789 1701 2734.50Q1902 2680 2003.50 2555.50Q2105 2431 2105 2224Q2105 1947 1924 1758.50Q1743 1570 1458 1499Q1756 1480 1982 1328.50Q2208 1177 2208 856Q2208 418 1839 164Q1678 55 1475 27.50Q1272 0 975 0Z"  horiz-adv-x="2429" vert-adv-y="4096"  />

      
      <glyph glyph-name="uni0412" unicode="&#x0412;" d="M729 2638L729 1561L877 1561Q1248 1561 1434 1642Q1587 1711 1668 1841Q1749 1971 1749 2138Q1749 2417 1573.50 2527.50Q1398 2638 1053 2638L729 2638M729 1401L729 152L1139 152Q1337 152 1494 232.50Q1651 313 1739 458.50Q1827 604 1827 786Q1827 1127 1606.50 1264Q1386 1401 979 1401L729 1401M975 0L369 0L369 2789L1192 2789Q1500 2789 1701 2734.50Q1902 2680 2003.50 2555.50Q2105 2431 2105 2224Q2105 1947 1924 1758.50Q1743 1570 1458 1499Q1756 1480 1982 1328.50Q2208 1177 2208 856Q2208 418 1839 164Q1678 55 1475 27.50Q1272 0 975 0Z"  horiz-adv-x="2429" vert-adv-y="4096"  />

      
      <glyph glyph-name="unic3" unicode="&#xc3;" d="M369-8L369 2789L1823 2789Q1821 2764 1815.50 2728.50Q1810 2693 1810 2666Q1810 2640 1815.50 2602.50Q1821 2565 1823 2544Q1675 2573 1454 2589L1044 2597L729 2597L729-8Q599 0 549 0Q483 0 369-8Z"  horiz-adv-x="1970" vert-adv-y="4096"  />

      
      <glyph glyph-name="uni0413" unicode="&#x0413;" d="M369-8L369 2789L1823 2789Q1821 2764 1815.50 2728.50Q1810 2693 1810 2666Q1810 2640 1815.50 2602.50Q1821 2565 1823 2544Q1675 2573 1454 2589L1044 2597L729 2597L729-8Q599 0 549 0Q483 0 369-8Z"  horiz-adv-x="1970" vert-adv-y="4096"  />

      
      <glyph glyph-name="unic4" unicode="&#xc4;" d="M-12 197L164 197Q293 480 540 1040Q787 1600 1003 2107Q1219 2614 1282 2789L1479 2789Q1532 2661 1645.50 2387.50Q1759 2114 1975 1596.50Q2191 1079 2342 720Q2493 361 2564 197L2740 197Q2728 130 2728 33Q2728-104 2740-172L2703-172Q2649-91 2547.50-53.50Q2446-16 2305-8Q2164 0 1884 0L885 0Q605 0 460-8Q315-16 202.50-53.50Q90-91 16-172L-12-172Q0-111 0 33Q0 62-12 197M426 197L2179 197Q2142 289 1987 675.50Q1832 1062 1700 1389.50Q1568 1717 1461.50 1981Q1355 2245 1315 2343L1298 2343Q1108 1924 977.50 1620Q847 1316 700.50 941.50Q554 567 426 197Z"  horiz-adv-x="2732" vert-adv-y="4096"  />

      
      <glyph glyph-name="uni0414" unicode="&#x0414;" d="M-12 197L164 197Q293 480 540 1040Q787 1600 1003 2107Q1219 2614 1282 2789L1479 2789Q1532 2661 1645.50 2387.50Q1759 2114 1975 1596.50Q2191 1079 2342 720Q2493 361 2564 197L2740 197Q2728 130 2728 33Q2728-104 2740-172L2703-172Q2649-91 2547.50-53.50Q2446-16 2305-8Q2164 0 1884 0L885 0Q605 0 460-8Q315-16 202.50-53.50Q90-91 16-172L-12-172Q0-111 0 33Q0 62-12 197M426 197L2179 197Q2142 289 1987 675.50Q1832 1062 1700 1389.50Q1568 1717 1461.50 1981Q1355 2245 1315 2343L1298 2343Q1108 1924 977.50 1620Q847 1316 700.50 941.50Q554 567 426 197Z"  horiz-adv-x="2732" vert-adv-y="4096"  />

      
      <glyph glyph-name="unic5" unicode="&#xc5;" d="M725 2597L725 1569L1360 1569Q1434 1569 1565 1578.50Q1696 1588 1724 1589Q1723 1580 1719.50 1558Q1716 1536 1714 1515.50Q1712 1495 1712 1483Q1712 1473 1714.50 1450Q1717 1427 1720 1406Q1723 1385 1724 1368Q1665 1370 1549.50 1379.50Q1434 1389 1360 1389L725 1389L725 193Q976 193 1466 209Q1655 215 1843 246Q1842 231 1839 207.50Q1836 184 1833.50 160.50Q1831 137 1831 123Q1831 95 1835.50 63Q1840 31 1843 0L365 0L365 2789L1819 2789Q1817 2764 1811.50 2728.50Q1806 2693 1806 2666Q1806 2640 1811.50 2602.50Q1817 2565 1819 2544Q1671 2573 1450 2589L1040 2597L725 2597Z"  horiz-adv-x="2048" vert-adv-y="4096"  />

      
      <glyph glyph-name="uni0415" unicode="&#x0415;" d="M725 2597L725 1569L1360 1569Q1434 1569 1565 1578.50Q1696 1588 1724 1589Q1723 1580 1719.50 1558Q1716 1536 1714 1515.50Q1712 1495 1712 1483Q1712 1473 1714.50 1450Q1717 1427 1720 1406Q1723 1385 1724 1368Q1665 1370 1549.50 1379.50Q1434 1389 1360 1389L725 1389L725 193Q976 193 1466 209Q1655 215 1843 246Q1842 231 1839 207.50Q1836 184 1833.50 160.50Q1831 137 1831 123Q1831 95 1835.50 63Q1840 31 1843 0L365 0L365 2789L1819 2789Q1817 2764 1811.50 2728.50Q1806 2693 1806 2666Q1806 2640 1811.50 2602.50Q1817 2565 1819 2544Q1671 2573 1450 2589L1040 2597L725 2597Z"  horiz-adv-x="2048" vert-adv-y="4096"  />

      
      <glyph glyph-name="unic6" unicode="&#xc6;" d="M1823 2777Q1851 2777 1919 2783Q1987 2789 2003 2789L2003 1524Q2003 1516 2015 1516Q2047 1516 2093 1548Q2121 1569 2350 1825.50Q2579 2082 2832 2370.50Q3085 2659 3199 2789Q3225 2789 3279 2783Q3333 2777 3363 2777Q3386 2777 3439 2783Q3492 2789 3523 2789L2355 1544Q2498 1380 2756 1054.50Q3014 729 3244 432.50Q3474 136 3572 8L3572-12Q3455 0 3346 0Q3222 0 3117-12Q3069 57 2901 285Q2733 513 2455.50 888Q2178 1263 2073 1405Q2073 1425 2019 1425Q2003 1425 2003 1417L2003-12Q1892 0 1815 0Q1765 0 1642-12L1642 1417Q1573 1417 1573 1405Q1468 1263 1258.50 980.50Q1049 698 812.50 377.50Q576 57 528-12Q498-10 418.50-5Q339 0 299 0Q266 0 195-5Q124-10 74-12L74 8Q172 136 378 402Q584 668 871 1030.50Q1158 1393 1290 1544L123 2789Q152 2789 205 2783Q258 2777 283 2777Q312 2777 366 2783Q420 2789 446 2789Q560 2659 780.50 2407.50Q1001 2156 1262.50 1863Q1524 1570 1552 1548Q1564 1543 1592 1528.50Q1620 1514 1630 1511Q1642 1511 1642 1524L1642 2789Q1677 2789 1736 2783Q1795 2777 1823 2777Z"  horiz-adv-x="3641" vert-adv-y="4096"  />

      
      <glyph glyph-name="uni0416" unicode="&#x0416;" d="M1823 2777Q1851 2777 1919 2783Q1987 2789 2003 2789L2003 1524Q2003 1516 2015 1516Q2047 1516 2093 1548Q2121 1569 2350 1825.50Q2579 2082 2832 2370.50Q3085 2659 3199 2789Q3225 2789 3279 2783Q3333 2777 3363 2777Q3386 2777 3439 2783Q3492 2789 3523 2789L2355 1544Q2498 1380 2756 1054.50Q3014 729 3244 432.50Q3474 136 3572 8L3572-12Q3455 0 3346 0Q3222 0 3117-12Q3069 57 2901 285Q2733 513 2455.50 888Q2178 1263 2073 1405Q2073 1425 2019 1425Q2003 1425 2003 1417L2003-12Q1892 0 1815 0Q1765 0 1642-12L1642 1417Q1573 1417 1573 1405Q1468 1263 1258.50 980.50Q1049 698 812.50 377.50Q576 57 528-12Q498-10 418.50-5Q339 0 299 0Q266 0 195-5Q124-10 74-12L74 8Q172 136 378 402Q584 668 871 1030.50Q1158 1393 1290 1544L123 2789Q152 2789 205 2783Q258 2777 283 2777Q312 2777 366 2783Q420 2789 446 2789Q560 2659 780.50 2407.50Q1001 2156 1262.50 1863Q1524 1570 1552 1548Q1564 1543 1592 1528.50Q1620 1514 1630 1511Q1642 1511 1642 1524L1642 2789Q1677 2789 1736 2783Q1795 2777 1823 2777Z"  horiz-adv-x="3641" vert-adv-y="4096"  />

      
      <glyph glyph-name="unic7" unicode="&#xc7;" d="M336 2359L205 2593Q303 2681 511.50 2766Q720 2851 1040 2851Q1244 2851 1427 2808.50Q1610 2766 1753 2679Q1896 2592 1976 2462Q2056 2332 2056 2163Q2056 1915 1887.50 1737.50Q1719 1560 1405 1487Q1637 1470 1820.50 1382Q2004 1294 2108 1140.50Q2212 987 2212 782Q2212 507 2056.50 316.50Q1901 126 1623.50 32.50Q1346-61 983-61Q792-61 569.50 0.50Q347 62 180 160Q198 198 208.50 239.50Q219 281 227.50 336.50Q236 392 242 422L274 438Q378 295 587.50 196.50Q797 98 991 98Q1252 98 1431.50 177.50Q1611 257 1700.50 408.50Q1790 560 1790 774Q1790 961 1705 1100.50Q1620 1240 1460 1316.50Q1300 1393 1081 1393Q990 1393 713 1380Q729 1409 729 1470Q729 1500 713 1556Q893 1548 1032 1548Q1339 1548 1495 1711.50Q1651 1875 1651 2134Q1651 2290 1578.50 2417.50Q1506 2545 1363 2620Q1220 2695 1020 2695Q775 2695 603 2608Q431 2521 360 2372L336 2359Z"  horiz-adv-x="2503" vert-adv-y="4096"  />

      
      <glyph glyph-name="uni0417" unicode="&#x0417;" d="M336 2359L205 2593Q303 2681 511.50 2766Q720 2851 1040 2851Q1244 2851 1427 2808.50Q1610 2766 1753 2679Q1896 2592 1976 2462Q2056 2332 2056 2163Q2056 1915 1887.50 1737.50Q1719 1560 1405 1487Q1637 1470 1820.50 1382Q2004 1294 2108 1140.50Q2212 987 2212 782Q2212 507 2056.50 316.50Q1901 126 1623.50 32.50Q1346-61 983-61Q792-61 569.50 0.50Q347 62 180 160Q198 198 208.50 239.50Q219 281 227.50 336.50Q236 392 242 422L274 438Q378 295 587.50 196.50Q797 98 991 98Q1252 98 1431.50 177.50Q1611 257 1700.50 408.50Q1790 560 1790 774Q1790 961 1705 1100.50Q1620 1240 1460 1316.50Q1300 1393 1081 1393Q990 1393 713 1380Q729 1409 729 1470Q729 1500 713 1556Q893 1548 1032 1548Q1339 1548 1495 1711.50Q1651 1875 1651 2134Q1651 2290 1578.50 2417.50Q1506 2545 1363 2620Q1220 2695 1020 2695Q775 2695 603 2608Q431 2521 360 2372L336 2359Z"  horiz-adv-x="2503" vert-adv-y="4096"  />

      
      <glyph glyph-name="unic8" unicode="&#xc8;" d="M369-12L369 2789Q410 2777 549 2777Q570 2777 729 2789L729 651L770 651L2634 2789L2814 2789L2814-12Q2703 0 2634 0Q2574 0 2454-12L2454 2224L2413 2224L705 238Q592 114 492-12L369-12Z"  horiz-adv-x="3187" vert-adv-y="4096"  />

      
      <glyph glyph-name="uni0418" unicode="&#x0418;" d="M369-12L369 2789Q410 2777 549 2777Q570 2777 729 2789L729 651L770 651L2634 2789L2814 2789L2814-12Q2703 0 2634 0Q2574 0 2454-12L2454 2224L2413 2224L705 238Q592 114 492-12L369-12Z"  horiz-adv-x="3187" vert-adv-y="4096"  />

      
      <glyph glyph-name="unic9" unicode="&#xc9;" d="M369-12L369 2789Q430 2777 549 2777Q673 2777 729 2789L729 651L770 651L2634 2789L2814 2789L2814-12Q2703 0 2634 0Q2574 0 2454-12L2454 2224L2413 2224Q2206 1984 1828.50 1545Q1451 1106 982.50 561Q514 16 492-12L369-12M2355 3293L2454 3129Q2058 2896 1606 2896Q1162 2896 762 3125L868 3293Q1179 3092 1606 3092Q2032 3092 2355 3293Z"  horiz-adv-x="3187" vert-adv-y="4096"  />

      
      <glyph glyph-name="uni0419" unicode="&#x0419;" d="M369-12L369 2789Q430 2777 549 2777Q673 2777 729 2789L729 651L770 651L2634 2789L2814 2789L2814-12Q2703 0 2634 0Q2574 0 2454-12L2454 2224L2413 2224Q2206 1984 1828.50 1545Q1451 1106 982.50 561Q514 16 492-12L369-12M2355 3293L2454 3129Q2058 2896 1606 2896Q1162 2896 762 3125L868 3293Q1179 3092 1606 3092Q2032 3092 2355 3293Z"  horiz-adv-x="3187" vert-adv-y="4096"  />

      
      <glyph glyph-name="unica" unicode="&#xca;" d="M2380 2789L1450 1896L1102 1544Q1223 1406 1349 1264Q1475 1122 1598.50 983.50Q1722 845 1868.50 679.50Q2015 514 2097 418L2429 8L2429-12Q2383-10 2309.50-5Q2236 0 2204 0Q2164 0 2086-5Q2008-10 1974-12Q1821 211 1692 360L799 1405Q767 1425 741 1425Q729 1425 729 1417L729-12Q694-10 635-5Q576 0 549 0Q517 0 456-5Q395-10 369-12L369 2789Q386 2788 422 2784.50Q458 2781 493 2779Q528 2777 549 2777Q568 2777 602.50 2779.50Q637 2782 673 2785Q709 2788 729 2789L729 1524Q729 1516 750 1516Q786 1516 831 1548Q898 1600 1049 1749L2056 2789Q2096 2786 2139.50 2781.50Q2183 2777 2220 2777Q2236 2777 2267 2779.50Q2298 2782 2328.50 2785Q2359 2788 2380 2789Z"  horiz-adv-x="2503" vert-adv-y="4096"  />

      
      <glyph glyph-name="uni041A" unicode="&#x041A;" d="M2380 2789L1450 1896L1102 1544Q1223 1406 1349 1264Q1475 1122 1598.50 983.50Q1722 845 1868.50 679.50Q2015 514 2097 418L2429 8L2429-12Q2383-10 2309.50-5Q2236 0 2204 0Q2164 0 2086-5Q2008-10 1974-12Q1821 211 1692 360L799 1405Q767 1425 741 1425Q729 1425 729 1417L729-12Q694-10 635-5Q576 0 549 0Q517 0 456-5Q395-10 369-12L369 2789Q386 2788 422 2784.50Q458 2781 493 2779Q528 2777 549 2777Q568 2777 602.50 2779.50Q637 2782 673 2785Q709 2788 729 2789L729 1524Q729 1516 750 1516Q786 1516 831 1548Q898 1600 1049 1749L2056 2789Q2096 2786 2139.50 2781.50Q2183 2777 2220 2777Q2236 2777 2267 2779.50Q2298 2782 2328.50 2785Q2359 2788 2380 2789Z"  horiz-adv-x="2503" vert-adv-y="4096"  />

      
      <glyph glyph-name="unicb" unicode="&#xcb;" d="M1257 2343Q629 919 324-12Q299-10 249-5Q199 0 172 0Q150 0 101-5Q52-10 25-12Q70 73 247.50 462Q425 851 634.50 1328Q844 1805 1018 2219.50Q1192 2634 1241 2789L1434 2789Q1545 2519 1793 1920Q2041 1321 2290 733.50Q2539 146 2621-12Q2595-10 2526.50-5Q2458 0 2425 0Q2393 0 2329.50-5Q2266-10 2224-12Q2198 59 2085 344.50Q1972 630 1782.50 1109.50Q1593 1589 1471 1896.50Q1349 2204 1294 2343L1257 2343Z"  horiz-adv-x="2654" vert-adv-y="4096"  />

      
      <glyph glyph-name="uni041B" unicode="&#x041B;" d="M1257 2343Q629 919 324-12Q299-10 249-5Q199 0 172 0Q150 0 101-5Q52-10 25-12Q70 73 247.50 462Q425 851 634.50 1328Q844 1805 1018 2219.50Q1192 2634 1241 2789L1434 2789Q1545 2519 1793 1920Q2041 1321 2290 733.50Q2539 146 2621-12Q2595-10 2526.50-5Q2458 0 2425 0Q2393 0 2329.50-5Q2266-10 2224-12Q2198 59 2085 344.50Q1972 630 1782.50 1109.50Q1593 1589 1471 1896.50Q1349 2204 1294 2343L1257 2343Z"  horiz-adv-x="2654" vert-adv-y="4096"  />

      
      <glyph glyph-name="unicc" unicode="&#xcc;" d="M3031 2789L3117 2789Q3173 2264 3197.50 2045.50Q3222 1827 3274 1373.50Q3326 920 3368 596Q3410 272 3449-12Q3407-10 3346.50-5Q3286 0 3256 0Q3224 0 3158-5Q3092-10 3064-12Q3038 291 2994 775Q2950 1259 2916.50 1581.50Q2883 1904 2855 2101Q2654 1740 2509.50 1477Q2365 1214 2229 953.50Q2093 693 1984 469.50Q1875 246 1782 33L1737 33L1511 496Q1329 871 684 2101Q669 1963 623 1573Q577 1183 547 900.50Q517 618 500 392Q483 166 483-12Q452-10 406.50-5Q361 0 340 0Q313 0 264-5Q215-10 193-12Q280 533 419.50 1515Q559 2497 586 2789L692 2789Q895 2387 1074.50 2040Q1254 1693 1444.50 1347.50Q1635 1002 1851 643Q1886 705 2042 988.50Q2198 1272 2413 1667Q2628 2062 2766 2312.50Q2904 2563 3031 2789Z"  horiz-adv-x="3641" vert-adv-y="4096"  />

      
      <glyph glyph-name="uni041C" unicode="&#x041C;" d="M3031 2789L3117 2789Q3173 2264 3197.50 2045.50Q3222 1827 3274 1373.50Q3326 920 3368 596Q3410 272 3449-12Q3407-10 3346.50-5Q3286 0 3256 0Q3224 0 3158-5Q3092-10 3064-12Q3038 291 2994 775Q2950 1259 2916.50 1581.50Q2883 1904 2855 2101Q2654 1740 2509.50 1477Q2365 1214 2229 953.50Q2093 693 1984 469.50Q1875 246 1782 33L1737 33L1511 496Q1329 871 684 2101Q669 1963 623 1573Q577 1183 547 900.50Q517 618 500 392Q483 166 483-12Q452-10 406.50-5Q361 0 340 0Q313 0 264-5Q215-10 193-12Q280 533 419.50 1515Q559 2497 586 2789L692 2789Q895 2387 1074.50 2040Q1254 1693 1444.50 1347.50Q1635 1002 1851 643Q1886 705 2042 988.50Q2198 1272 2413 1667Q2628 2062 2766 2312.50Q2904 2563 3031 2789Z"  horiz-adv-x="3641" vert-adv-y="4096"  />

      
      <glyph glyph-name="unicd" unicode="&#xcd;" d="M2454 1614L2454 2789Q2471 2788 2507 2784.50Q2543 2781 2578 2779Q2613 2777 2634 2777Q2653 2777 2687.50 2779.50Q2722 2782 2756 2785Q2790 2788 2814 2789L2814-12Q2776-10 2718.50-5Q2661 0 2634 0Q2602 0 2541-5Q2480-10 2454-12L2454 1397Q1726 1417 1593 1417Q1467 1417 729 1397L729-12Q694-10 635-5Q576 0 549 0Q517 0 456-5Q395-10 369-12L369 2789Q386 2788 422 2784.50Q458 2781 493 2779Q528 2777 549 2777Q568 2777 602.50 2779.50Q637 2782 673 2785Q709 2788 729 2789L729 1614Q882 1610 1150 1601.50Q1418 1593 1593 1593Q1772 1593 2038 1601.50Q2304 1610 2454 1614Z"  horiz-adv-x="3187" vert-adv-y="4096"  />

      
      <glyph glyph-name="uni041D" unicode="&#x041D;" d="M2454 1614L2454 2789Q2471 2788 2507 2784.50Q2543 2781 2578 2779Q2613 2777 2634 2777Q2653 2777 2687.50 2779.50Q2722 2782 2756 2785Q2790 2788 2814 2789L2814-12Q2776-10 2718.50-5Q2661 0 2634 0Q2602 0 2541-5Q2480-10 2454-12L2454 1397Q1726 1417 1593 1417Q1467 1417 729 1397L729-12Q694-10 635-5Q576 0 549 0Q517 0 456-5Q395-10 369-12L369 2789Q386 2788 422 2784.50Q458 2781 493 2779Q528 2777 549 2777Q568 2777 602.50 2779.50Q637 2782 673 2785Q709 2788 729 2789L729 1614Q882 1610 1150 1601.50Q1418 1593 1593 1593Q1772 1593 2038 1601.50Q2304 1610 2454 1614Z"  horiz-adv-x="3187" vert-adv-y="4096"  />

      
      <glyph glyph-name="unice" unicode="&#xce;" d="M1679-61Q1345-61 1065.50 41.50Q786 144 586 336.50Q386 529 279 797.50Q172 1066 172 1389Q172 1718 287.50 1990.50Q403 2263 610.50 2455Q818 2647 1094 2749Q1370 2851 1688 2851Q1987 2851 2264 2768Q2541 2685 2761.50 2513Q2982 2341 3111 2073Q3240 1805 3240 1450Q3240 1113 3126.50 833.50Q3013 554 2801.50 352.50Q2590 151 2303 45Q2016-61 1679-61M2839 1417Q2839 1702 2784 1914.50Q2729 2127 2580 2318Q2429 2510 2203 2613Q1977 2716 1729 2716Q1374 2716 1112 2546Q850 2376 711.50 2064Q573 1752 573 1339Q573 939 722 652Q871 365 1127 219.50Q1383 74 1692 74Q1986 74 2206 201.50Q2426 329 2565.50 533.50Q2705 738 2772 972.50Q2839 1207 2839 1417Z"  horiz-adv-x="3412" vert-adv-y="4096"  />

      
      <glyph glyph-name="uni041E" unicode="&#x041E;" d="M1679-61Q1345-61 1065.50 41.50Q786 144 586 336.50Q386 529 279 797.50Q172 1066 172 1389Q172 1718 287.50 1990.50Q403 2263 610.50 2455Q818 2647 1094 2749Q1370 2851 1688 2851Q1987 2851 2264 2768Q2541 2685 2761.50 2513Q2982 2341 3111 2073Q3240 1805 3240 1450Q3240 1113 3126.50 833.50Q3013 554 2801.50 352.50Q2590 151 2303 45Q2016-61 1679-61M2839 1417Q2839 1702 2784 1914.50Q2729 2127 2580 2318Q2429 2510 2203 2613Q1977 2716 1729 2716Q1374 2716 1112 2546Q850 2376 711.50 2064Q573 1752 573 1339Q573 939 722 652Q871 365 1127 219.50Q1383 74 1692 74Q1986 74 2206 201.50Q2426 329 2565.50 533.50Q2705 738 2772 972.50Q2839 1207 2839 1417Z"  horiz-adv-x="3412" vert-adv-y="4096"  />

      
      <glyph glyph-name="unicf" unicode="&#xcf;" d="M369 2789L2814 2789L2814-12Q2776-10 2718.50-5Q2661 0 2634 0Q2602 0 2541-5Q2480-10 2454-12L2454 2585Q2018 2597 1593 2597Q1172 2597 729 2585L729-12Q694-10 635-5Q576 0 549 0Q517 0 456-5Q395-10 369-12L369 2789Z"  horiz-adv-x="3187" vert-adv-y="4096"  />

      
      <glyph glyph-name="uni041F" unicode="&#x041F;" d="M369 2789L2814 2789L2814-12Q2776-10 2718.50-5Q2661 0 2634 0Q2602 0 2541-5Q2480-10 2454-12L2454 2585Q2018 2597 1593 2597Q1172 2597 729 2585L729-12Q694-10 635-5Q576 0 549 0Q517 0 456-5Q395-10 369-12L369 2789Z"  horiz-adv-x="3187" vert-adv-y="4096"  />

      
      <glyph glyph-name="unid0" unicode="&#xd0;" d="M729 1274L729-12Q694-10 635-5Q576 0 549 0Q517 0 456-5Q395-10 369-12L369 2789L1102 2789Q1504 2789 1732 2724.50Q1960 2660 2059.50 2515Q2159 2370 2159 2118Q2159 1935 2103.50 1796.50Q2048 1658 1939.50 1560Q1831 1462 1667.50 1394Q1504 1326 1282 1282Q1190 1262 1044 1262Q969 1262 860 1268Q751 1274 729 1274M729 2630L729 1434Q848 1425 918 1425Q977 1425 1135 1434Q1439 1465 1610.50 1643.50Q1782 1822 1782 2097Q1782 2242 1732.50 2355.50Q1683 2469 1579.50 2540Q1476 2611 1319 2626Q1233 2634 1004 2634Q791 2634 729 2630Z"  horiz-adv-x="2351" vert-adv-y="4096"  />

      
      <glyph glyph-name="uni0420" unicode="&#x0420;" d="M729 1274L729-12Q694-10 635-5Q576 0 549 0Q517 0 456-5Q395-10 369-12L369 2789L1102 2789Q1504 2789 1732 2724.50Q1960 2660 2059.50 2515Q2159 2370 2159 2118Q2159 1935 2103.50 1796.50Q2048 1658 1939.50 1560Q1831 1462 1667.50 1394Q1504 1326 1282 1282Q1190 1262 1044 1262Q969 1262 860 1268Q751 1274 729 1274M729 2630L729 1434Q848 1425 918 1425Q977 1425 1135 1434Q1439 1465 1610.50 1643.50Q1782 1822 1782 2097Q1782 2242 1732.50 2355.50Q1683 2469 1579.50 2540Q1476 2611 1319 2626Q1233 2634 1004 2634Q791 2634 729 2630Z"  horiz-adv-x="2351" vert-adv-y="4096"  />

      
      <glyph glyph-name="unid1" unicode="&#xd1;" d="M2523 430L2503 172Q2154-61 1597-61Q1264-61 996.50 40.50Q729 142 540 335Q351 528 253.50 800Q156 1072 156 1405Q156 1851 358.50 2180Q561 2509 914 2680Q1267 2851 1700 2851Q2145 2851 2580 2662Q2532 2539 2494 2347L2466 2343Q2427 2394 2316 2478Q2205 2562 2038 2628.50Q1871 2695 1683 2695Q1410 2695 1197 2592.50Q984 2490 842 2309.50Q700 2129 628.50 1892.50Q557 1656 557 1389Q557 1004 695.50 710Q834 416 1084.50 257Q1335 98 1655 98Q1938 98 2167 210Q2396 322 2523 430Z"  horiz-adv-x="2732" vert-adv-y="4096"  />

      
      <glyph glyph-name="uni0421" unicode="&#x0421;" d="M2523 430L2503 172Q2154-61 1597-61Q1264-61 996.50 40.50Q729 142 540 335Q351 528 253.50 800Q156 1072 156 1405Q156 1851 358.50 2180Q561 2509 914 2680Q1267 2851 1700 2851Q2145 2851 2580 2662Q2532 2539 2494 2347L2466 2343Q2427 2394 2316 2478Q2205 2562 2038 2628.50Q1871 2695 1683 2695Q1410 2695 1197 2592.50Q984 2490 842 2309.50Q700 2129 628.50 1892.50Q557 1656 557 1389Q557 1004 695.50 710Q834 416 1084.50 257Q1335 98 1655 98Q1938 98 2167 210Q2396 322 2523 430Z"  horiz-adv-x="2732" vert-adv-y="4096"  />

      
      <glyph glyph-name="unid2" unicode="&#xd2;" d="M1339 2593L1339-12Q1242 0 1159 0Q1065 0 979-12L979 2593Q558 2593 82 2544Q84 2565 89 2606Q94 2647 94 2666Q94 2686 89 2725Q84 2764 82 2789L2195 2789Q2194 2774 2191 2750.50Q2188 2727 2185.50 2703.50Q2183 2680 2183 2666Q2183 2652 2185 2629Q2187 2606 2190.50 2581Q2194 2556 2195 2544Q1779 2593 1339 2593Z"  horiz-adv-x="2277" vert-adv-y="4096"  />

      
      <glyph glyph-name="uni0422" unicode="&#x0422;" d="M1339 2593L1339-12Q1242 0 1159 0Q1065 0 979-12L979 2593Q558 2593 82 2544Q84 2565 89 2606Q94 2647 94 2666Q94 2686 89 2725Q84 2764 82 2789L2195 2789Q2194 2774 2191 2750.50Q2188 2727 2185.50 2703.50Q2183 2680 2183 2666Q2183 2652 2185 2629Q2187 2606 2190.50 2581Q2194 2556 2195 2544Q1779 2593 1339 2593Z"  horiz-adv-x="2277" vert-adv-y="4096"  />

      
      <glyph glyph-name="unid3" unicode="&#xd3;" d="M1602 1229Q1625 1277 1705.50 1439Q1786 1601 1931.50 1892.50Q2077 2184 2181.50 2403Q2286 2622 2355 2789Q2422 2777 2494 2777Q2509 2777 2537.50 2779.50Q2566 2782 2595 2785Q2624 2788 2642 2789Q2595 2712 2425 2389.50Q2255 2067 1991 1551Q1727 1035 1509.50 599.50Q1292 164 1212-12Q1128 0 1085 0Q988 0 901-12Q1042 209 1183 459.50Q1324 710 1389 831Q1258 1022 1017 1372.50Q776 1723 438.50 2206.50Q101 2690 25 2789Q208 2777 279 2777Q299 2777 343.50 2779.50Q388 2782 433.50 2785Q479 2788 500 2789Q1054 1879 1556 1229L1602 1229Z"  horiz-adv-x="2654" vert-adv-y="4096"  />

      
      <glyph glyph-name="uni0423" unicode="&#x0423;" d="M1602 1229Q1625 1277 1705.50 1439Q1786 1601 1931.50 1892.50Q2077 2184 2181.50 2403Q2286 2622 2355 2789Q2422 2777 2494 2777Q2509 2777 2537.50 2779.50Q2566 2782 2595 2785Q2624 2788 2642 2789Q2595 2712 2425 2389.50Q2255 2067 1991 1551Q1727 1035 1509.50 599.50Q1292 164 1212-12Q1128 0 1085 0Q988 0 901-12Q1042 209 1183 459.50Q1324 710 1389 831Q1258 1022 1017 1372.50Q776 1723 438.50 2206.50Q101 2690 25 2789Q208 2777 279 2777Q299 2777 343.50 2779.50Q388 2782 433.50 2785Q479 2788 500 2789Q1054 1879 1556 1229L1602 1229Z"  horiz-adv-x="2654" vert-adv-y="4096"  />

      
      </font>
</defs>
</svg>
